<svg xmlns="http://www.w3.org/2000/svg"><defs><font horiz-adv-x="1126"><font-face units-per-em="2048" ascent="1516" descent="-532"/><glyph horiz-adv-x="446"/><glyph horiz-adv-x="446"/><glyph horiz-adv-x="446"/><glyph unicode="!" horiz-adv-x="653" d="M455 90q0-45-31-75.5t-78-30.5-77.5 30.5-30.5 75.5q0 47 30.5 78t77.5 31 78-31 31-78zm-45 238h-127l-29 1108h184z"/><glyph unicode=""" horiz-adv-x="716" d="M252 979h-111l-28 451h168zm326 0h-113l-27 451h166z"/><glyph unicode="#" horiz-adv-x="1175" d="M901 893l-43-389h199v-107h-209l-41-397h-125l41 397h-332l-41-397h-125l41 397h-196v107h209l43 389h-201v104h209l43 385h125l-43-385h331l41 385h125l-41-385h193v-104h-203zm-455 0l-43-389h330l43 389h-330z"/><glyph unicode="$" horiz-adv-x="999" d="M881 420q0-141-90.5-240.5t-255.5-128.5v-272h-117v266q-76 0-136.5 7t-119.5 24l8 147q27-10 60.5-19t70.5-15.5 73-9.5 66-3q59 0 110.5 12.5t89.5 39 59.5 68.5 21.5 101q0 74-44 119t-109.5 77-143.5 60.5-143.5 70.5-109.5 105.5-44 165.5q0 133 91 224.5t241 111.5v219h119v-213q61-2 116.5-8t100.5-16l-11-139q-55 16-115.5 26t-117.5 10q-76 0-128-16t-84-44-45-62.5-13-71.5q0-72 44-116t111.5-76.5 144-62.5 144.5-73 112-105.5 44-162.5z"/><glyph unicode="%" horiz-adv-x="1527" d="M547 1081q0 106-38 159.5t-124 53.5q-72 0-115-56t-43-148q0-109 39-163.5t125-54.5q70 0 113 57.5t43 151.5zm753-784q0 109-37.5 161t-123.5 52q-72 0-115-56.5t-43-148.5q0-109 39-163t127-54q68 0 110.5 58.5t42.5 150.5zm-622 799q0-145-80-237.5t-221-92.5q-147 0-214 81t-67 228q0 70 20.5 129.5t59.5 103.5 95.5 68.5 125.5 24.5q145 0 213-79t68-226zm-373-1137l-102 72 1016 1388 100-69zm1127 352q0-72-20.5-132t-59.5-104-95.5-68.5-126.5-24.5q-147 0-213.5 81.5t-66.5 229.5q0 70 20.5 129t59.5 103 95 68.5 126 24.5q145 0 213-80t68-227z"/><glyph unicode="&" horiz-adv-x="1626" d="M1004 270q-70 55-141.5 115.5t-139.5 121-127 118-104 104.5q-74-59-121-112.5t-69.5-107.5-22.5-116q0-61 21.5-112.5t62-89 101-58 134.5-20.5q63 0 121.5 12t110 33.5 94.5 50 80 61.5zm-277 949q0 74-44 120.5t-132 46.5q-78 0-128-49t-50-125q0-61 32.5-133.5t116.5-169.5q70 53 114 102.5t67.5 101 23.5 106.5zm678-1256q-76 57-152.5 115.5t-140.5 109.5q-51-47-110.5-84.5t-128-64.5-145.5-42-159-15q-106 0-190 27.5t-141.5 80.5-87 125-29.5 160q0 92 37 170t98 142.5 152 133.5q-51 59-87 111.5t-58.5 98.5-33 89-10.5 84q0 61 23.5 115.5t67.5 96.5 109.5 65.5 147.5 23.5q147 0 229.5-74.5t82.5-193.5q0-74-28-139.5t-87-131-158-143.5q45-47 104.5-102t126-113.5 135-115 136.5-109.5q23 31 43 66.5t36.5 75.5 30 85 21.5 93.5 10 99.5 0 104h156q2-70-5-137.5t-22.5-132-39-123.5-54.5-113.5-67-101.5q66-51 139.5-107.5t142.5-107.5z"/><glyph unicode="'" horiz-adv-x="393" d="M252 979h-111l-28 451h168z"/><glyph unicode="(" horiz-adv-x="618" d="M457-422q-92 145-150.5 279.5t-91.5 259.5-44 240.5-11 224.5q0 106 13 226t47 248 92.5 264 146.5 275l106-55q-129-217-193.5-457.5t-64.5-490.5q0-266 63.5-500.5t198.5-458.5z"/><glyph unicode=")" horiz-adv-x="618" d="M473 592q0-109-14.5-228.5t-48-247.5-92-263.5-146.5-274.5l-106 55q129 217 193.5 458t64.5 491q0 264-63.5 499.5t-197.5 456.5l113 57q92-147 150.5-281t90.5-258 44-239.5 12-224.5z"/><glyph unicode="*" horiz-adv-x="755" d="M600 995l-190 133 20-231h-119l21 231-191-133-57 103 211 98-211 98 59 101 189-131-19 231h117l-18-231 190 131 57-101-210-96 210-98z"/><glyph unicode="+" d="M635 545v-424h-146v424h-401v129h401v422h146v-422h403v-129h-403z"/><glyph unicode="," horiz-adv-x="444" d="M217 203q49 0 81-40t29-109.5-51.5-161-156.5-193.5l-68 59q94 106 108.5 175t-18.5 112q-18 25-20 52.5t9 51 33.5 39 53.5 15.5z"/><glyph unicode="-" horiz-adv-x="671" d="M98 532v127h475v-127h-475z"/><glyph unicode="­" horiz-adv-x="671" d="M98 532v127h475v-127h-475z"/><glyph unicode="." horiz-adv-x="444" d="M334 94q0-47-33-78.5t-80-31.5q-45 0-77.5 32.5t-32.5 77.5q2 49 34.5 80t75.5 31q47 0 80-33t33-78z"/><glyph unicode="/" horiz-adv-x="876" d="M162-330h-146l717 1880h146z"/><glyph unicode="0" horiz-adv-x="1257" d="M987 532q0 90-22.5 167t-68.5 134.5-113.5 89-153.5 31.5q-78 0-143.5-29.5t-113.5-85-75-134-27-173.5q0-90 22.5-166.5t69-134 114-89 153.5-31.5q78 0 143.5 29.5t113.5 85 74.5 134 26.5 172.5zm158 15q0-129-40-233.5t-112.5-179.5-169-113.5-207.5-38.5q-115 0-208 36.5t-159.5 107.5-101 170-34.5 222q0 129 40 233.5t112.5 179.5 168.5 113.5 207 38.5q115 0 208-36.5t159.5-107.5 101.5-170 35-222z"/><glyph unicode="1" horiz-adv-x="688" d="M328 0v918l-242-93-29 127 301 117h127v-1069h-157z"/><glyph unicode="2" horiz-adv-x="987" d="M117 0v125l297 256q129 102 189.5 183t60.5 171q0 98-61.5 158.5t-172.5 60.5q-66 0-136.5-20.5t-127.5-54.5l-23 131q70 35 149 54t163 19q180 0 277-89t97-234q0-111-62-210t-200-210l-245-203v-4q43 2 111.5 3t177 2 268.5 1v-139h-762z"/><glyph unicode="3" horiz-adv-x="946" d="M827 61q0-96-37.5-180t-109.5-147.5-175.5-98-230.5-34.5q-45 0-95 4t-91 12l18 137q41-10 90.5-15t96.5-5q90 0 158.5 23.5t115.5 64.5 71 97 24 120q0 82-35 140.5t-98.5 94-153.5 47-201 1.5v122q104 0 188 17.5t144.5 54.5 92.5 91.5 32 125.5q0 102-65.5 162.5t-178.5 60.5q-63 0-125.5-17t-120.5-46l-14 133q70 29 140.5 43t146.5 14q96 0 167.5-25.5t119-70.5 70-103.5 22.5-125.5q0-119-71-211t-187-137v-2q135-23 213.5-117.5t78.5-229.5z"/><glyph unicode="4" horiz-adv-x="1105" d="M668 913h-2l-484-778q57 2 152.5 3t177.5 1h156v774zm151-913v-389h-151v389h-611l-26 127 587 938h201v-926h258v-139h-258z"/><glyph unicode="5" horiz-adv-x="960" d="M854 96q0-106-43-196t-122-158-186.5-104.5-234.5-36.5q-39 0-81 3t-76 9l14 139q86-16 160-16 96 0 173 25.5t128 72.5 77.5 107.5 26.5 130.5q0 76-27.5 135t-81 100-133 61.5-182.5 20.5h-47l-47-2v678h631v-150h-486v-393q129 0 229.5-30.5t169-87 103.5-135.5 35-173z"/><glyph unicode="6" horiz-adv-x="1191" d="M920 442q0 150-78 236t-213 86q-74 0-132.5-24.5t-96.5-68.5-57-98.5-19-111.5q0-70 18-132.5t55-111.5 94.5-77.5 131.5-28.5q68 0 123 24.5t94 69.5 59.5 106 20.5 131zm165 27q0-104-34.5-194.5t-100-156-155.5-101-197-35.5q-213 0-332 156.5t-119 430.5q0 217 53.5 383t149.5 275.5 227.5 164 286.5 54.5q16 0 43-1t43-3v-135q-31 4-55.5 6t-48.5 2q-115 0-204-36t-153.5-103.5-105.5-161.5-61-211q-4-23-7.5-41.5t-9.5-44.5l2-2q49 86 140.5 135t214.5 49q98 0 177-30.5t134-87 83.5-136.5 28.5-176z"/><glyph unicode="7" horiz-adv-x="940" d="M879 934q-137-305-249-636t-196-687h-176q90 352 203.5 677.5t245.5 631.5q-27-2-149-3.5t-250-1.5h-255v150h826v-131z"/><glyph unicode="8" horiz-adv-x="1122" d="M831 334q0 53-19 98t-56 84-88.5 73-122.5 73h-2q-125-76-189.5-149t-64.5-165q0-106 73.5-171.5t200.5-65.5q55 0 104.5 15t86.5 44 57 71 20 93zm-24 776q0 94-65.5 155.5t-180.5 61.5q-117 0-184.5-62.5t-67.5-156.5q0-88 62.5-153.5t193.5-139.5h2q66 41 111 77t73.5 69.5 42 70.5 13.5 78zm188-752q0-88-35.5-158.5t-98-119.5-144.5-73.5-174-24.5q-100 0-179 25.5t-131.5 72.5-79 110.5-26.5 139.5q0 70 24.5 128t65.5 105 91 85 114 79l-2 2q-135 80-204 167t-69 200q0 78 30 143.5t86 113.5 135 73.5 173 25.5q92 0 166-23.5t125-67.5 78-104.5 27-130.5q0-109-66.5-196.5t-212.5-177.5q68-39 119-76t94-83 68.5-104.5 25.5-130.5z"/><glyph unicode="9" horiz-adv-x="1191" d="M868 586q0 82-19.5 149.5t-57 116.5-94 75.5-128.5 26.5q-66 0-121-25.5t-94-70.5-60.5-105.5-21.5-129.5q0-154 77-238t216-84q66 0 122 22.5t97 62.5 62.5 92.5 21.5 107.5zm179-97q0-217-52.5-384.5t-149.5-279.5-232.5-168-299.5-56q-23 0-56.5 3t-61.5 7v145q29-8 64.5-13t64.5-5q227 0 355 119.5t179 357.5q4 20 9 55t10 62h-3q-51-78-143-124t-203-46q-195 0-307 117.5t-112 316.5q0 104 33.5 193.5t97 156 152.5 102 196 35.5q102 0 185-34.5t144.5-107.5 95.5-186.5 34-265.5z"/><glyph unicode=":" horiz-adv-x="577" d="M432 94q0-47-31.5-78.5t-78.5-31.5-80 31.5-33 78.5 32.5 79 80.5 32q47 0 78.5-32t31.5-79zm0 608q0-47-31.5-79.5t-78.5-32.5-80 32.5-33 79.5 32.5 79 80.5 32q47 0 78.5-32t31.5-79z"/><glyph unicode=";" horiz-adv-x="577" d="M319 203q49 0 81-40t29-109.5-51-161-157-193.5l-67 59q47 51 72.5 95.5t34.5 80 3 63.5-20 48q-18 25-20.5 52.5t9 51 33.5 39 53 15.5zm113 499q0-47-31.5-79.5t-78.5-32.5-80 32.5-33 79.5 32.5 79 80.5 32q47 0 78.5-32t31.5-79z"/><glyph unicode="<" d="M801 49l-647 572 645 571 98-98-547-471 547-467z"/><glyph unicode="=" d="M117 379v127h893v-127h-893zm0 332v129h893v-129h-893z"/><glyph unicode=">" d="M328 49l-99 98 547 474-547 466 97 105 647-569z"/><glyph unicode="?" horiz-adv-x="907" d="M500 90q0-45-31-75.5t-78-30.5-77.5 30.5-30.5 75.5q0 47 30.5 78t77.5 31 78-31 31-78zm274 971q0-84-30.5-143.5t-74.5-108.5-92.5-93-83-97.5-46-123 17.5-167.5h-150q-33 104-24.5 179t41.5 133 79 104.5 89 91.5 73.5 94 30.5 114q0 51-29.5 97.5t-84 82.5-132 57.5-174.5 25.5l21 141q133-4 238.5-38t179-86 112.5-120.5 39-142.5z"/><glyph unicode="@" horiz-adv-x="2097" d="M1411-266q-94-27-202.5-42.5t-202.5-15.5q-193 0-347.5 56.5t-263 162-165 254-56.5 328.5q0 213 75 395.5t208 315.5 307 204.5 366 71.5q193 0 341.5-57t247-156.5 147.5-228.5 49-272q0-139-36-253t-101.5-193-152.5-121-185-42q-68 0-117 21.5t-79 59.5-41 84-5 95h-4q-18-47-48-93t-71-84-92-60.5-111-22.5q-111 0-174 81t-63 222q0 119 31.5 225.5t94 188.5 156 128 213.5 46q66 0 129.5-6t110.5-14 45-8l-88-459q-27-135 10-205t125-70q68 0 124 32t98 93.5 66 148.5 24 195q0 117-37 224.5t-116 193.5-205 136-296 50q-166 0-312-62t-257-177-172.5-270.5-61.5-335.5q0-160 46.5-289t136.5-220 222-140.5 300-49.5q88 0 181 14.5t190 39.5zm-172 1159q-4 0-13 2t-27.5 5-44.5 5-54 2q-78 0-137.5-40t-98.5-105.5-57.5-141-18.5-147.5q0-100 30-151.5t93-51.5q92 0 177.5 132.5t128.5 365.5z"/><glyph unicode="A" horiz-adv-x="1251" d="M682 1036q-18 55-32.5 99.5t-28.5 91.5h-3q-14-49-28.5-94.5t-30.5-92.5l-207-571h535zm365-1036l-121 342h-615l-121-342h-163l508 1382h184l506-1382h-178z"/><glyph unicode="B" horiz-adv-x="1159" d="M885 391q0 66-22.5 114t-70 80.5-123 50-182.5 17.5h-83.5l-59.5-2v-520q27-4 83-7t105-3q90 0 158 20.5t111 57.5 63.5 86 20.5 106zm-47 637q0 53-15.5 95t-50.5 74-95.5 50.5-150.5 18.5q-33 0-80-2t-102-4v-486q29-2 58.5-2h91.5q170 0 257 66.5t87 189.5zm213-625q0-70-28-141.5t-89.5-131.5-165.5-98-250-38q-59 0-183 3t-149 3v1382q45 2 146.5 4.5t212.5 2.5q231 0 343.5-89.5t112.5-246.5q0-111-64.5-198t-174.5-126v-2q66-10 119-36.5t91-68.5 58.5-96.5 20.5-122.5z"/><glyph unicode="C" horiz-adv-x="1208" d="M1114 61q-82-35-183.5-55t-205.5-20q-158 0-275.5 48t-195.5 137-116 213-38 275q0 160 40 294t122 233.5 210 155 300 55.5q78 0 165-12.5t159-32.5l-27-146q-80 27-162 42.5t-157 15.5q-123 0-215.5-44t-151.5-124-87-184.5-28-225.5q0-272 123-417.5t367-145.5q82 0 170 19.5t155 52.5z"/><glyph unicode="D" horiz-adv-x="1398" d="M1133 694q0 567-564 568-49 0-87-1t-138-6v-1118q41-6 97.5-10t101.5-4q133 0 240.5 35t186.5 105.5 121 178 42 252.5zm163 11q0-174-56-308.5t-159.5-223.5-245-134-313.5-45q-76 0-184.5 3t-151.5 3v1382q49 0 186.5 3.5t213.5 3.5q170 0 302-41t223-125 138-214 47-304z"/><glyph unicode="E" horiz-adv-x="1052" d="M186 0v1382h719v-127h-561v-479h516v-127h-516v-518h561v-131h-719z"/><glyph unicode="F" horiz-adv-x="966" d="M344 1253v-485h508v-125h-508v-643h-158v1382h703v-129h-545z"/><glyph unicode="G" horiz-adv-x="1402" d="M1227 59q-104-39-222-58t-229-19q-154 0-282.5 46t-218 134-135.5 215-46 285q0 164 49.5 302t145.5 237 230 149.5 308 50.5q98 0 192.5-15.5t186.5-44.5l-35-143q-90 35-179 52.5t-183 17.5q-106 0-206.5-32t-178.5-107.5-119-182-45-260.5q0-137 37-242.5t108.5-179.5 173-110.5 222.5-36.5q76 0 141.5 10t126.5 31v538h158v-637z"/><glyph unicode="H" horiz-adv-x="1437" d="M1096 0v651h-752v-651h-158v1382h158v-600h752v600h155v-1382h-155z"/><glyph unicode="I" horiz-adv-x="530" d="M186 0v1382h158v-1382h-158z"/><glyph unicode="J" horiz-adv-x="706" d="M520 352q0-178-88-272t-266-94q-37 0-84 5t-80 11v141q29-10 78-17t88-7q47 0 82 11t60.5 38 40 75 14.5 119v1020h155v-1030z"/><glyph unicode="K" horiz-adv-x="1185" d="M932 0l-588 694v-694h-158v1382h158v-661l590 661h190l-612-665 637-717h-217z"/><glyph unicode="L" horiz-adv-x="870" d="M186 0v1382h158v-1251h512v-131h-670z"/><glyph unicode="M" horiz-adv-x="1828" d="M1556 0l-118 858q-16 127-27.5 222.5t-13.5 158.5h-4q-12-49-32-114.5t-46-143.5l-346-981h-144l-325 928q-74 213-99 311h-2q-4-80-13-175t-21-216l-99-848h-157l182 1382h215l332-936q20-59 37.5-118.5t29.5-114.5h2q12 63 29.5 122.5t36.5 110.5l330 936h225l190-1382h-162z"/><glyph unicode="N" horiz-adv-x="1421" d="M1081 0h-6l-543 852q-41 63-71.5 114.5t-54 92.5-43 75.5-35.5 69.5h-4q2-61 5-159.5t6-212 4-230.5 1-213v-389h-154v1382h199l512-804q43-68 73.5-117t53.5-89 39-71 31-61h4q-4 70-7.5 164t-5.5 200.5-3 216-1 209.5v352h154v-1382h-154z"/><glyph unicode="O" horiz-adv-x="1449" d="M1192 682q0 268-120 426t-347 158q-98 0-183-37t-148.5-108.5-99.5-178-36-240.5q0-131 29.5-238.5t89-185 146.5-119.5 202-42q98 0 183 36.5t148.5 108.5 99.5 178.5 36 241.5zm164 27q0-172-50.5-308.5t-140.5-229.5-207.5-141-250.5-48q-145 0-260 48t-194 139-119 219-40 286q0 172 50.5 308t140.5 229.5 207.5 141.5 250.5 48q145 0 260-48t194-139.5 119-219 40-285.5z"/><glyph unicode="P" horiz-adv-x="1124" d="M889 940q0 147-94.5 234.5t-282.5 87.5q-51 0-98-1t-70-4v-632q23-2 72-7.5t102-5.5q180 0 275.5 92.5t95.5 235.5zm162 25q0-102-38-190.5t-110-153-174-100.5-225-36q-78 0-160 7v-492h-158v1382q197 6 349 7 131 0 229-33t161.5-92.5 94.5-135 31-163.5z"/><glyph unicode="Q" horiz-adv-x="1449" d="M1448-137q-82-10-145.5-6t-112.5 16-120 39-101.5 38-86 21.5-124.5 10.5h-51q-145 0-260 48t-194 139-119 219-40 286q0 172 50.5 308t140.5 229.5 207.5 141.5 250.5 48q145 0 260-48t194-139.5 119-219.5 40-285q0-92-15.5-176t-44-157-71.5-132.5-97.5-104.5-119.5-71q43 0 93-15.5t99-32 108.5-22.5 139.5 2v-137zm-256 819q0 268-120 426t-347 158q-98 0-183-37t-148.5-108.5-99.5-178-36-240.5q0-131 29.5-238.5t89-185 146.5-119.5 202-42q98 0 183 36.5t148.5 108.5 99.5 178.5 36 241.5z"/><glyph unicode="R" horiz-adv-x="1155" d="M840 1001q0 127-85 195t-243 68q-82 0-168-7v-522q20 0 66.5-1t93.5-1q162 0 249 70.5t87 197.5zm61-1001l-446 614h-111v-614h-158v1380q45 2 142.5 5.5t199.5 3.5q106 0 193.5-21.5t151-67 97.5-115 34-163.5q0-90-30-159.5t-83-119-122-77-148-37.5q16-16 48.5-57.5t67.5-88.5l361-483h-197z"/><glyph unicode="S" horiz-adv-x="1032" d="M922 383q0-88-33-160.5t-96.5-127-156.5-84-212-29.5q-80 0-160 11t-145 30l22 149q66-25 142.5-39t150.5-14q72 0 131.5 14t102.5 44 66.5 77 23.5 113q0 78-43 129t-98.5 79.5-169 76.5-180 91-110.5 113-44 174q0 82 31.5 149.5t92 118 148.5 77 197 26.5q59 0 124.5-7.5t122.5-19.5l-18-141q-57 16-119.5 26.5t-122.5 10.5q-145 0-221-59.5t-76-166.5q0-76 44-126t97.5-76.5 169-75.5 183.5-93 112-115 44-175z"/><glyph unicode="T" horiz-adv-x="1062" d="M608 1251v-1251h-155v1251h-414v131h985v-131h-416z"/><glyph unicode="U" horiz-adv-x="1427" d="M1241 524q0-266-138-404t-407-138q-154 0-255 38.5t-156.5 106.5-77 150.5-21.5 181.5v923h158v-909q0-80 16.5-144.5t56.5-113.5 111.5-76.5 180.5-27.5q195 0 286.5 92t91.5 309v870h154v-858z"/><glyph unicode="V" horiz-adv-x="1255" d="M717 0h-185l-503 1382h176l330-925q25-72 49-152t45-147h2q18 68 44.5 146.5t55.5 160.5l330 917h164z"/><glyph unicode="W" horiz-adv-x="1953" d="M1501 0h-198l-283 971q-12 49-24.5 99t-20.5 97h-2q-20-121-41-196l-277-971h-198l-379 1382h168l260-952q20-84 33.5-149.5t25.5-128.5h2q14 76 28.5 140t31.5 128l274 962h158l287-979q16-59 32.5-124.5t28.5-126.5h2q8 57 19.5 112t25.5 115l268 1003h154z"/><glyph unicode="X" horiz-adv-x="1202" d="M967 0l-375 596-371-596h-180l459 715-430 667h180l346-546 340 546h176l-422-659 471-723h-194z"/><glyph unicode="Y" horiz-adv-x="1079" d="M616 541v-541h-155v541l-453 841h174l252-475q31-61 56.5-114.5t52.5-114.5h2q27 59 54.5 118.5t57.5 114.5l248 471h166z"/><glyph unicode="Z" horiz-adv-x="1105" d="M94 0v115l613 952q29 43 62.5 92t59.5 88q-66-2-144.5-3t-178.5-1h-389v139h891v-116l-646-996q-16-27-47.5-72.5t-40.5-60.5q31 4 112 5t251 1h377v-143h-920z"/><glyph unicode="[" horiz-adv-x="653" d="M188-401v1976h387v-117h-245v-1741h245v-118h-387z"/><glyph unicode="\" horiz-adv-x="874" d="M743-330l-716 1880h145l717-1880h-146z"/><glyph unicode="]" horiz-adv-x="653" d="M80-401v118h244v1741h-244v117h387v-1976h-387z"/><glyph unicode="^" d="M844 707l-305 557-293-557-107 57 340 618h127l355-614z"/><glyph unicode="_" d="M0-512v121h1126v-121h-1126z"/><glyph unicode="`" horiz-adv-x="716" d="M455 1174l-271 262 101 94 247-283z"/><glyph unicode="a" horiz-adv-x="1064" d="M723 485q-131 0-222-16t-144.5-46-77-67-23.5-82q0-74 46-121t122-47q63 0 119.5 30t96.5 80 61.5 112.5 21.5 126.5v30zm6-485q0 78 2 127t8 88h-4q-18-49-52-91t-80-75-102.5-50-119.5-17q-123 0-201 73.5t-78 196.5q0 160 162 253t459 93v61q0 131-52.5 192.5t-176.5 61.5q-70 0-153-19.5t-157-51.5l-28 121q84 35 175 54t181 19q100 0 170-24.5t113-70.5 62.5-111.5 19.5-149.5v-491l1-98 3-91h-152z"/><glyph unicode="b" horiz-adv-x="1142" d="M887 543q0 174-58.5 270t-185.5 96q-78 0-134-40t-94-101-56.5-135-18.5-141v-357q86-27 199-26 80 0 143 24.5t109.5 76.5 71 135 24.5 198zm162 12q0-135-37-241.5t-105.5-178.5-166-109.5-216.5-37.5q-104 0-182 8t-156 31v1468h154v-516q0-43-4-95.5t-14-90.5l4-2q45 117 136 181t212 64q180 0 277.5-121.5t97.5-359.5z"/><glyph unicode="c" horiz-adv-x="901" d="M842 43q-66-27-148-42t-164-15q-92 0-169.5 23.5t-139 78.5-96.5 150.5-35 234.5q0 125 32 228.5t93 177 152.5 113.5 207.5 40q147 0 261-45l-31-131q-55 23-119.5 36t-128.5 13q-72 0-129-29.5t-96-84-59.5-128-20.5-163.5q0-84 15.5-151.5t50-120 95-82 148.5-29.5q139 0 252 53z"/><glyph unicode="d" horiz-adv-x="1142" d="M803 885q-104 25-201 24-158 2-251-101t-95-333q0-174 60.5-270t183.5-96q76 0 134 39.5t95 102 55.5 135.5 18.5 140v359zm2-885q0 47 4 110.5t14 110.5l-4 2q-43-111-137-176t-213-65q-188 0-281.5 129t-93.5 352q0 135 37 241.5t105.5 178 164 109.5 213.5 38q45 0 90.5-3t98.5-7v475h153v-1495h-151z"/><glyph unicode="e" horiz-adv-x="1034" d="M776 625q2 139-63.5 216t-184.5 77q-109 0-183.5-77t-90.5-216h522zm158-4q0-35-1-66t-3-43h-680q-2-207 80-305t252-98q74 0 147.5 13t151.5 42l22-121q-180-61-342-61-233 0-352 129t-119 393q0 113 31 211t89 169.5 141 111.5 188 40q102 0 178-31.5t124-89 70.5-133 22.5-161.5z"/><glyph unicode="f" horiz-adv-x="712" d="M774 1358q-20 6-65 14t-95 8q-117 0-171-69.5t-54-218.5v-74h301v-121h-301v-897h-153v897h-222v121h222v65q0 213 101 317.5t286 104.5q82 0 165-16z"/><glyph unicode="g" horiz-adv-x="1087" d="M872-172q0 86-60 133t-194 51l-176 6-53 5q-74-45-111.5-102.5t-37.5-119.5q0-49 20.5-88t58-65.5 92-40 121.5-13.5q164 0 252 65t88 169zm-104 846q0 109-65.5 176.5t-180.5 67.5q-113 0-178-68t-65-176q0-109 65.5-176.5t177.5-67.5q115 0 180.5 67.5t65.5 176.5zm260-826q0-82-37-151.5t-104.5-119.5-164.5-76.5-214-26.5q-201 0-314.5 78.5t-113.5 222.5q0 86 50 159.5t128 124.5q-45 23-67.5 60t-22.5 84q0 49 27.5 91t80.5 79q-74 47-111.5 122.5t-37.5 163.5q0 80 26.5 149t79 120 128 79.5 174.5 28.5q35 0 69.5-5t67.5-13h342v-121h-166q35-43 53.5-95t18.5-112q0-80-27-148.5t-79-119.5-128-80-174-29q-33 0-62.5 3t-58.5 10q-31-20-48-44t-17-49q0-37 37.5-58t125.5-23l170-7q184-6 276.5-84t92.5-213z"/><glyph unicode="h" horiz-adv-x="1181" d="M842 0v657q0 121-40 186.5t-151 65.5q-68 0-125-31.5t-99-89-64.5-134-22.5-167.5v-487h-154v1495h154v-500q0-51-3-103t-13-99l4-2q45 113 137 179t225 66q88 0 146.5-25.5t93.5-69.5 50-104.5 15-127.5v-709h-153z"/><glyph unicode="i" horiz-adv-x="526" d="M186 0v1018h154v-1018h-154zm185 1346q0-43-32-74t-75-31q-45 0-75.5 29.5t-30.5 75.5q0 43 30.5 73.5t75.5 30.5q43 0 75-29.5t32-74.5z"/><glyph unicode="j" horiz-adv-x="542" d="M354-129q0-102-17.5-176t-57-124-99-72.5-145.5-22.5q-33 0-73 4t-79 12l15 135q29-10 70.5-16t76.5-6q47 0 76 12t47 41 26.5 79 8.5 124v1157h151v-1147zm31 1475q0-43-30.5-74t-75.5-31q-43 0-74 29.5t-31 75.5q0 43 31 73.5t74 30.5q45 0 75.5-29.5t30.5-74.5z"/><glyph unicode="k" horiz-adv-x="987" d="M741 0l-401 535v-535h-154v1495h154v-934l383 457h178l-399-459 438-559h-199z"/><glyph unicode="l" horiz-adv-x="526" d="M186 0v1495h154v-1495h-154z"/><glyph unicode="m" horiz-adv-x="1810" d="M1470 0v655q0 61-8 107.5t-28.5 79-57.5 50-90 17.5q-59 0-113.5-29.5t-98.5-86-68.5-135-24.5-175.5v-483h-152v657q0 57-7 101.5t-27.5 78-57.5 53-92 19.5q-61 0-117.5-30.5t-98.5-88-65.5-136.5-23.5-171v-483h-154v1018h152q0-59-4-121.5t-12-105.5l4-3q43 115 138 181.5t220 66.5q82 0 137.5-25.5t87-63.5 45-79 15.5-75q16 41 44.5 81.5t71.5 77.5 103.5 60.5 134.5 23.5q145 0 223-82t78-249v-705h-154z"/><glyph unicode="n" horiz-adv-x="1181" d="M842 0v657q0 127-42 189.5t-149 62.5q-68 0-125-31.5t-99-89-64.5-134-22.5-167.5v-487h-154v1018h152q0-53-4-117.5t-12-109.5l4-3q45 115 139 181.5t225 66.5q84 0 143.5-24.5t95.5-68.5 51-103.5 15-130.5v-709h-153z"/><glyph unicode="o" horiz-adv-x="1110" d="M864 510q0 188-82 293.5t-225 105.5q-70 0-127-25.5t-98-76.5-62.5-126-21.5-173q0-188 81-292.5t224-104.5q68 0 124 23.5t98 72.5 65.5 125 23.5 178zm158 10q0-113-30.5-211t-92-172-153-114.5-207.5-40.5q-102 0-185.5 31.5t-142.5 96-91 162-32 226.5q0 113 32 211t93 171.5 152.5 114.5 207.5 41q102 0 185.5-31.5t141.5-96 90-162 32-226.5z"/><glyph unicode="p" horiz-adv-x="1142" d="M887 543q0 176-60.5 271t-183.5 95q-74 0-131-37.5t-95-100-57.5-136.5-19.5-143v-357q86-27 199-26 80 0 144.5 25.5t109.5 77.5 69.5 135 24.5 196zm162 12q0-270-138.5-418.5t-382.5-148.5q-57 0-99 3t-89 11v-512h-154v1528h152q0-55-4-117.5t-12-103.5l4-2q43 113 135 177t213 64q180 0 277.5-122.5t97.5-358.5z"/><glyph unicode="q" horiz-adv-x="1142" d="M803 887q-102 25-199 24-80 0-143.5-24.5t-109.5-77.5-70.5-136-24.5-198q0-174 58.5-270t185.5-96q76 0 133 39.5t95 101 56.5 136.5 18.5 142v359zm0-1397v555q0 33 2 81t12 95h-4q-41-111-132-175t-210-64q-180 0-278.5 119.5t-98.5 359.5q0 137 37 243.5t105.5 179 167 110.5 221.5 38q86 0 170-7t161-21v-1514h-153z"/><glyph unicode="r" horiz-adv-x="724" d="M672 883q-170 29-251-94t-81-381v-408h-154v1018h152q0-51-6-121t-17-135l2-2q14 55 43 108.5t73 93 104.5 60 140.5 12.5z"/><glyph unicode="s" horiz-adv-x="876" d="M768 287q0-63-26.5-118.5t-79-97.5-130-65.5-174.5-23.5q-61 0-126.5 8t-116.5 20l14 142q51-18 118.5-30.5t127.5-12.5q113 0 174 44t61 121q0 57-33.5 91t-70.5 49.5-129 48.5-145.5 63.5-87 85-33.5 138.5q0 61 24.5 112t74.5 91 123 61.5 167 21.5q49 0 101-5t101-15l-14-131q-47 14-100 22t-105 8q-106 0-161.5-40.5t-55.5-112.5q0-55 34-90t71-50.5 130-48 145-63.5 87-85 35-138z"/><glyph unicode="t" horiz-adv-x="757" d="M688 6q-43-10-95-16t-97-6q-76 0-126.5 17t-81 54-44 93.5-13.5 138.5v610h-217v121h217v338l154 43v-381h297v-121h-297v-567q0-63 7-104.5t23.5-65 45-33.5 74.5-10q76 0 141 16z"/><glyph unicode="u" horiz-adv-x="1181" d="M844 0q0 51 4 115.5t12 111.5l-4 2q-43-113-136-180t-228-67q-88 0-146.5 25.5t-94.5 69.5-50.5 104.5-14.5 127.5v709h154v-658q0-121 40-186t150-65q68 0 125.5 31.5t99.5 88 64.5 134 22.5 167.5v488h153v-1018h-151z"/><glyph unicode="v" horiz-adv-x="978" d="M571 0h-172l-376 1018h172l237-674q23-70 32-97.5t25-90.5h3q16 57 25 87.5t30 94.5l244 680h165z"/><glyph unicode="w" horiz-adv-x="1622" d="M1251 0h-178l-223 662q-16 49-30.5 99t-26.5 97h-2q-12-55-34-131t-38-129l-187-598h-180l-313 1018h172l176-617q10-39 33.5-125t32.5-120h2q12 55 29.5 118.5t37.5 128.5l195 615h176l199-615q14-47 25-82.5t19.5-64.5 14.5-53.5 12-48.5h4q10 47 26.5 105t41.5 142l184 617h164z"/><glyph unicode="x" horiz-adv-x="1054" d="M801 0l-281 410-280-410h-191l385 510-364 508h190l272-402 279 402h176l-364-502 381-516h-203z"/><glyph unicode="y" horiz-adv-x="964" d="M526-96q-45-121-92-203t-102.5-132-124-72.5-154.5-22.5q-33 0-62.5 4t-43.5 8l16 133q14-4 48-9t71-5q47 0 85 13t71.5 45 64.5 85 62 133l47 119-389 1018h176l213-586q25-70 43-128t37-120h2q12 49 38.5 131t61.5 181l182 522h168z"/><glyph unicode="z" horiz-adv-x="913" d="M100 0v109l518 776q-55-2-131.5-3t-156.5-1h-219v137h684v-107l-514-774q47 2 136 3t158 1h230v-141h-705z"/><glyph unicode="{" horiz-adv-x="681" d="M569-401q-162 0-230.5 92t-68.5 284v392q0 59-11 100t-36.5 66.5-67.5 39-106 17.5v123q66 4 108 16t67.5 37 35.5 64.5 10 103.5v266q0 82 15.5 149.5t49.5 118 92 79 142 28.5h35v-117q-55 0-92-13t-58.5-42-31.5-76-10-121v-262q0-254-191-291v-2q94-14 142.5-91t48.5-204v-387q0-74 10-121t31.5-75.5 58.5-42 92-13.5v-118h-35z"/><glyph unicode="|" horiz-adv-x="581" d="M229-510v2048h121v-2048h-121z"/><glyph unicode="}" horiz-adv-x="681" d="M633 590q-63-4-105.5-17.5t-68-39-36.5-66.5-11-100v-392q0-193-69-284.5t-230-91.5h-35v118q55 0 92 13.5t58.5 42 31.5 76 10 120.5v387q0 127 48.5 204t142.5 91v2q-96 14-143.5 87t-47.5 194v272q0 74-10 121t-31.5 76-58.5 42-92 13v117h35q84 0 142-28.5t92-79 49.5-118 15.5-149.5v-256q0-68 10-109.5t35.5-67.5 66.5-38 109-16v-123z"/><glyph unicode="~" d="M1010 1155q0-129-71-210t-189-81q-76 0-124 31t-96.5 90-78 85-80.5 26q-66 0-99.5-51.5t-35.5-137.5h-115v13q0 131 70.5 210.5t189.5 79.5q76 0 124-30.5t96-90 78-85 81-25.5q66 0 99.5 51t35.5 139h115v-14z"/><glyph unicode="¡" horiz-adv-x="653" d="M215-418l29 1108h127l28-1108h-184zm203 1346q0-47-32-78t-79-31-77.5 31-30.5 78q0 45 30.5 75.5t77.5 30.5 79-30.5 32-75.5z"/><glyph unicode="¢" horiz-adv-x="933" d="M852 283q-49-23-110.5-39.5t-125.5-20.5v-274h-122v274q-193 14-293.5 138t-100.5 344q0 98 27 183t77 149.5 123.5 105.5 166.5 53v234h122v-226q57-2 117-13t111-32l-21-133q-102 51-235 51-156 0-242-96t-86-268q0-78 16.5-142.5t53.5-113.5 100.5-77 155.5-28q61 0 124.5 15.5t118.5 44.5z"/><glyph unicode="£" horiz-adv-x="960" d="M88 0v109q61 49 102 93t66 91 35 98 10 113q0 29-2 68.5t-10 101.5h-228v121h211q-10 63-18 127.5t-8 117.5q0 174 98 266.5t279 92.5q49 0 105-6.5t103-20.5l-26-133q-45 16-94 25.5t-97 9.5q-100 0-156.5-56.5t-56.5-160.5q0-39 6.5-107.5t18.5-154.5h324v-121h-308q6-47 8.5-84t2.5-70q0-66-8.5-119t-30-99-57-88-89.5-89q41 6 97.5 9t107.5 3h424v-137h-809z"/><glyph unicode="¤" d="M782 684q0 104-51 175t-174 71q-92 0-152.5-66.5t-60.5-183.5q0-53 11.5-101.5t38-83 69.5-55 104-20.5q43 0 82 18.5t69 52 47 83 17 110.5zm123-551l-166 225q-84-55-192-55-88 0-150 31l-149-201-111 82 152 188q-41 47-62.5 114t-21.5 159q0 78 24.5 144.5t69.5 113.5l-162 201 109 82 155-211q74 41 174 41 41 0 88.5-8.5t88.5-30.5l157 209 107-84-164-203q31-41 50.5-100.5t19.5-143.5q0-154-84-250l178-219z"/><glyph unicode="¥" horiz-adv-x="1204" d="M717 582h307v-109h-344v-151h344v-111h-344v-211h-156v211h-346v111h346v151h-346v109h307l-395 800h172l234-487q31-61 54-118.5t52-133.5h4q23 66 53.5 133.5t67.5 141.5l229 464h166z"/><glyph unicode="¦" horiz-adv-x="581" d="M229-510v774h121v-774h-121zm0 1294v754h121v-754h-121z"/><glyph unicode="§" horiz-adv-x="1056" d="M721 451q0 61-29.5 118.5t-76 111.5-102.5 108.5-110 113.5q-53-37-74.5-84t-21.5-94q0-61 29-116.5t74-110 101-109.5 114-115q51 35 73.5 82.5t22.5 94.5zm147 20q0-168-161-287 35-47 57-100t22-113q0-59-22.5-114.5t-66.5-98.5-111.5-68.5-157.5-25.5q-33 0-75 6t-83 17l15 131q47-14 80.5-20.5t70.5-6.5q92 0 141.5 48t49.5 122q0 57-35 111.5t-86 109-112.5 111.5-113 120.5-86 135.5-34.5 156q0 166 162 288-37 49-59.5 101.5t-22.5 111.5q0 61 20.5 115.5t63.5 95.5 107.5 64.5 152.5 23.5q35 0 74.5-4t74.5-12l-14-131q-39 12-71 17t-68 5q-90 0-134.5-43t-44.5-118q0-57 35-110.5t86-110 112.5-114 113-122 86-137 34.5-154.5z"/><glyph unicode="¨" horiz-adv-x="948" d="M379 1346q0-41-27.5-70t-68.5-29-70 29-29 70 29 68.5 70 27.5 68.5-27.5 27.5-68.5zm385 0q0-41-27.5-70t-68.5-29-70 29-29 70 29 68.5 70 27.5 68.5-27.5 27.5-68.5z"/><glyph unicode="©" horiz-adv-x="1542" d="M969 358q-92-35-201-34-86 0-147.5 26.5t-100.5 73.5-56.5 111.5-17.5 140.5q0 74 18.5 141.5t61.5 119.5 111 83 166 31q45 0 84-7.5t74-17.5l-13-115q-70 33-153 33-59 0-99.5-20.5t-65-55-35.5-83-11-103.5q0-117 48-181.5t154-64.5q90 0 168 31l15-109zm356 326q0 115-44 217.5t-119 179-176 121.5-218 45-218-44-176-118.5-119-177-44-219.5 44-219 119-179 176-121 218-44 218 44 176 120 119 177 44 218zm125 4q0-141-53.5-265t-146.5-217-217-146.5-265-53.5q-145 0-270 53.5t-217.5 144.5-144.5 215-52 265 53 266 146.5 217.5 218.5 145.5 266 53 266-52 217-144.5 145.5-216.5 53.5-265z"/><glyph unicode="ª" horiz-adv-x="784" d="M506 1024q-147 0-207.5-31.5t-60.5-95.5q0-41 24.5-63.5t69.5-22.5q43 0 76.5 20.5t55 52 32 64.5 10.5 58v18zm-383-563v123h571v-123h-571zm381 258q0 25 3 54.5t9 55.5h-2q-27-57-83-90.5t-126-33.5q-96 0-147.5 48t-51.5 126q0 111 102.5 174t297.5 63v39q0 25-5 47.5t-19.5 42-43 31.5-73.5 12q-53 0-107.5-13t-101.5-38l-11 117q51 20 112.5 31.5t127.5 11.5q70 0 119-18.5t78.5-49.5 42-70.5 12.5-87.5v-274q0-53 1-103.5t1-74.5h-135z"/><glyph unicode="«" horiz-adv-x="1021" d="M356 246l-235 354 237 363 113-64-195-297 197-291zm392 2l-254 352 256 358 112-63-211-293 211-289z"/><glyph unicode="¬" d="M848 217v328h-760v129h893v-457h-133z"/><glyph unicode="®" horiz-adv-x="1150" d="M645 1186q0 33-17.5 48t-60.5 15h-47v-139h31q53 0 73.5 24.5t20.5 51.5zm2-338l-121 203h-6v-203h-90v471h152q86 0 121.5-33t35.5-88q0-59-31.5-93t-84.5-42q8-10 19-26.5t24-37.5l94-151h-113zm258 229q0 70-25.5 131.5t-70.5 107.5-105.5 73.5-128.5 27.5q-70 0-130-26.5t-105-71.5-70.5-105.5-25.5-128.5q0-70 25.5-131t70.5-107 105.5-74 129.5-28q68 0 130.5 27t105.5 72 68.5 105 25.5 128zm109 4q0-90-35-170t-95.5-139-140-94-168.5-35q-94 0-173.5 34t-139 93-93.5 139-34 172q0 90 35 170t94.5 139.5 139 94.5 171.5 35 172-34 139.5-92.5 93.5-139.5 34-173z"/><glyph unicode="¯" horiz-adv-x="870" d="M184 1276v117h502v-117h-502z"/><glyph unicode="°" horiz-adv-x="759" d="M512 1255q0 25-6 50.5t-21.5 47-42 36-65.5 14.5q-57 0-95-41t-38-107q0-68 35.5-106.5t95.5-38.5q59 0 98 41t39 104zm125 2q0-59-22.5-105t-60.5-79-86-50-99-17q-117 0-183.5 66.5t-66.5 180.5q0 57 21.5 104.5t59.5 81.5 85 51 96 17q66 0 114-20.5t79.5-55 47-80 15.5-94.5z"/><glyph unicode="±" d="M90 0v129h946v-129h-946zm545 678v-412h-143v412h-404v129h404v410h143v-410h403v-129h-403z"/><glyph unicode="²" horiz-adv-x="718" d="M84 752v106l207 207q82 82 121 147.5t39 126.5q0 68-38 112t-118 44q-47 0-95-14.5t-83-34.5l-25 108q47 23 108.5 39.5t127.5 16.5q131 0 202.5-67.5t71.5-178.5q0-92-42-170t-132-168l-158-156q72 4 167 4h202v-122h-555z"/><glyph unicode="³" horiz-adv-x="698" d="M598 1006q0-61-26.5-110.5t-72.5-85.5-110.5-55.5-140.5-19.5q-39 0-84 5t-84 14l16 116q33-10 76-17t86-7q92 0 141.5 41t49.5 106q0 76-76 116t-236 19v107q135 0 209 32.5t74 118.5q0 55-38 85t-106 30q-90 0-165-35l-19 107q104 37 213 37 121 0 190.5-52.5t69.5-154.5q0-150-143-199 84-16 130-71t46-127z"/><glyph unicode="´" horiz-adv-x="716" d="M262 1174l-78 73 248 283 100-94z"/><glyph unicode="¶" horiz-adv-x="1165" d="M588 520q-113 0-197 34t-139 94.5-82 139-27 168.5 32 168 90.5 135.5 140 90 182.5 32.5v-862zm297 746v-1463h-297v117h153v1462h291v-116h-147z"/><glyph unicode="·" horiz-adv-x="450" d="M342 608q0-49-34-82.5t-83-33.5-82.5 33.5-33.5 82.5 33.5 83 82.5 34 83-34 34-83z"/><glyph unicode="¸" horiz-adv-x="606" d="M360-84q74-96 60-192.5t-107-204.5h-129q43 53 67.5 96t30 82-8 79-50.5 83z"/><glyph unicode="¹" horiz-adv-x="548" d="M248 752v706l-189-63-24 114 239 86h119v-843h-145z"/><glyph unicode="º" horiz-adv-x="854" d="M602 1053q0 55-12 98t-35 72.5-54.5 45-72.5 15.5-73.5-15.5-56.5-44-36-72.5-12-99 12-98.5 34.5-73 55.5-45 74-15.5q82 0 129 59.5t47 172.5zm-463-592v123h576v-123h-576zm604 600q0-76-21.5-140.5t-63.5-112.5-103-74.5-141-26.5q-143 0-224 85t-81 252q0 74 21.5 138.5t63.5 114 104 76 140 26.5q70 0 126.5-20.5t96-62.5 61-106.5 21.5-148.5z"/><glyph unicode="»" horiz-adv-x="1021" d="M270 248l-110 63 211 293-209 289 114 65 252-352zm392-2l-113 63 196 295-194 293 117 66 233-357z"/><glyph unicode="¼" horiz-adv-x="1658" d="M248 752v706l-189-63-24 114 239 86h119v-843h-145zm-59-1033l-105 72 1301 1851 102-71zm1247 264v-192h-137v192h-398l-10 96 344 555h201v-534h139v-117h-139zm-137 547l-269-434q27 2 64 3t75.5 1h129.5v430z"/><glyph unicode="½" horiz-adv-x="1716" d="M189-281l-105 72 1301 1851 102-71zm59 1033v706l-189-63-24 114 239 86h119v-843h-145zm807-961v106l207 207q82 82 121 147.5t39 126.5q0 68-38 112t-118 44q-47 0-95-14.5t-83-34.5l-25 108q47 23 108.5 39.5t127.5 16.5q131 0 202.5-67.5t71.5-178.5q0-92-42-170t-132-168l-158-156q72 4 167 4h202v-122h-555z"/><glyph unicode="¾" horiz-adv-x="1701" d="M232-281l-105 72 1301 1851 102-71zm366 1287q0-61-26.5-110.5t-72.5-85.5-110.5-55.5-140.5-19.5q-39 0-84 5t-84 14l16 116q33-10 76-17t86-7q92 0 141.5 41t49.5 106q0 76-76 116t-236 19v107q135 0 209 32.5t74 118.5q0 55-38 85t-106 30q-90 0-165-35l-19 107q104 37 213 37 121 0 190.5-52.5t69.5-154.5q0-150-143-199 84-16 130-71t46-127zm883-1023v-192h-137v192h-398l-10 96 344 555h201v-534h139v-117h-139zm-137 547l-269-434q27 2 64 3t75.5 1h129.5v430z"/><glyph unicode="¿" horiz-adv-x="907" d="M702-430q-129 4-234.5 37t-181 86-114.5 121.5-39 142.5q0 78 27.5 137.5t56.5 90 99.5 101 102.5 121 41 120-18 163.5h152q31-98 23.5-174t-38-131-80.5-108.5-96.5-99.5-73-95-26.5-109q0-51 29.5-97t85-82 133.5-57.5 172-25.5zm-75 1358q0-45-32-77t-79-32q-45 0-76.5 32t-31.5 77 31.5 75.5 76.5 30.5q47 0 79-30.5t32-75.5z"/><glyph unicode="À" horiz-adv-x="1251" d="M682 1036q-18 55-32.5 99.5t-28.5 91.5h-3q-14-49-28.5-94.5t-30.5-92.5l-207-571h535zm365-1036l-121 342h-615l-121-342h-163l508 1382h184l506-1382h-178zm-336 1493l-369 117 49 125 353-152z"/><glyph unicode="Á" horiz-adv-x="1251" d="M682 1036q-18 55-32.5 99.5t-28.5 91.5h-3q-14-49-28.5-94.5t-30.5-92.5l-207-571h535zm365-1036l-121 342h-615l-121-342h-163l508 1382h184l506-1382h-178zm-523 1493l-33 90 353 152 49-125z"/><glyph unicode="Â" horiz-adv-x="1251" d="M682 1036q-18 55-32.5 99.5t-28.5 91.5h-3q-14-49-28.5-94.5t-30.5-92.5l-207-571h535zm365-1036l-121 342h-615l-121-342h-163l508 1382h184l506-1382h-178zm-150 1489l-272 127-275-127-45 92 322 168 317-166z"/><glyph unicode="Ã" horiz-adv-x="1251" d="M682 1036q-18 55-32.5 99.5t-28.5 91.5h-3q-14-49-28.5-94.5t-30.5-92.5l-207-571h535zm365-1036l-121 342h-615l-121-342h-163l508 1382h184l506-1382h-178zm-64 1655q-82-143-219-144-51 0-88 17.5t-67 38-57.5 38-62.5 17.5q-74 0-131-94l-82 59q39 70 94.5 107t124.5 37q51 0 88-17.5t67-38 57.5-38 62.5-17.5q72 0 131 94l82-59z"/><glyph unicode="Ä" horiz-adv-x="1251" d="M682 1036q-18 55-32.5 99.5t-28.5 91.5h-3q-14-49-28.5-94.5t-30.5-92.5l-207-571h535zm365-1036l-121 342h-615l-121-342h-163l508 1382h184l506-1382h-178zm-545 1595q-2-43-26.5-68.5t-69.5-27.5q-43 2-69 28.5t-28 67.5q2 41 29 68t68 29q43-2 68.5-29t27.5-68zm436 0q-2-45-30.5-70.5t-67.5-25.5q-45 2-68.5 28.5t-25.5 67.5q2 41 28.5 69t65.5 28q41-2 68.5-27t29.5-70z"/><glyph unicode="Å" horiz-adv-x="1251" d="M682 1036q-18 55-32.5 99.5t-28.5 91.5h-3q-14-49-28.5-94.5t-30.5-92.5l-207-571h535zm365-1036l-121 342h-615l-121-342h-163l508 1382h184l506-1382h-178zm-187 1675q0-92-62.5-154.5t-173.5-62.5q-100 0-158.5 51.5t-58.5 155.5q0 92 62.5 153.5t173.5 61.5q100 0 158.5-50.5t58.5-154.5zm-121-6q0 119-106 119-41 0-74-28.5t-33-88.5q0-119 107-119 41 0 73.5 29t32.5 88z"/><glyph unicode="Æ" horiz-adv-x="1595" d="M750 1255h-13q-31-66-61.5-128t-79.5-152l-277-504h431v784zm0-1255v346h-490l-186-346h-164l754 1382h774v-127h-535v-479h498v-127h-498v-518h545v-131h-698z"/><glyph unicode="Ç" horiz-adv-x="1208" d="M1114 61q-82-35-183.5-55t-205.5-20q-158 0-275.5 48t-195.5 137-116 213-38 275q0 160 40 294t122 233.5 210 155 300 55.5q78 0 165-12.5t159-32.5l-27-146q-80 27-162 42.5t-157 15.5q-123 0-215.5-44t-151.5-124-87-184.5-28-225.5q0-272 123-417.5t367-145.5q82 0 170 19.5t155 52.5zm-383-145q74-96 60-192.5t-107-204.5h-129q43 53 67.5 96t30 82-8 79-50.5 83z"/><glyph unicode="È" horiz-adv-x="1052" d="M186 0v1382h719v-127h-561v-479h516v-127h-516v-518h561v-131h-719zm437 1493l-369 117 49 125 353-152z"/><glyph unicode="É" horiz-adv-x="1052" d="M186 0v1382h719v-127h-561v-479h516v-127h-516v-518h561v-131h-719zm250 1493l-33 90 353 152 49-125z"/><glyph unicode="Ê" horiz-adv-x="1052" d="M186 0v1382h719v-127h-561v-479h516v-127h-516v-518h561v-131h-719zm625 1489l-272 127-275-127-45 92 322 168 317-166z"/><glyph unicode="Ë" horiz-adv-x="1052" d="M186 0v1382h719v-127h-561v-479h516v-127h-516v-518h561v-131h-719zm220 1595q-2-43-26.5-68.5t-69.5-27.5q-43 2-69 28.5t-28 67.5q2 41 29 68t68 29q43-2 68.5-29t27.5-68zm436 0q-2-45-30.5-70.5t-67.5-25.5q-45 2-68.5 28.5t-25.5 67.5q2 41 28.5 69t65.5 28q41-2 68.5-27t29.5-70z"/><glyph unicode="Ì" horiz-adv-x="530" d="M186 0v1382h158v-1382h-158zm164 1493l-369 117 49 125 353-152z"/><glyph unicode="Í" horiz-adv-x="530" d="M186 0v1382h158v-1382h-158zm0 1493l-33 90 353 152 49-125z"/><glyph unicode="Î" horiz-adv-x="530" d="M186 0v1382h158v-1382h-158zm352 1489l-272 127-275-127-45 92 322 168 317-166z"/><glyph unicode="Ï" horiz-adv-x="530" d="M186 0v1382h158v-1382h-158zm377 1595q0-41-28.5-68.5t-69.5-27.5q-39 0-67.5 28.5t-28.5 67.5q0 41 27.5 70t68.5 29 69.5-29 28.5-70zm-399 0q0-39-27.5-67.5t-68.5-28.5-70 27.5-29 68.5 29 70 70 29 68.5-29 27.5-70z"/><glyph unicode="Ð" horiz-adv-x="1415" d="M1149 694q0 281-141.5 424.5t-421.5 143.5q-49 0-122-2.5t-106-4.5v-483h314v-121h-314v-514q20-2 46-5t53.5-5 53.5-3 48-1q133 0 240.5 35t186.5 105.5 121 178 42 252.5zm166 11q0-174-56.5-307.5t-160-223.5-245.5-135-314-45q-74 0-183.5 3t-150.5 3v651h-199v121h199v610q49 0 185 3.5t212 3.5q346 0 529.5-169t183.5-515z"/><glyph unicode="Ñ" horiz-adv-x="1421" d="M1081 0h-6l-543 852q-41 63-71.5 114.5t-54 92.5-43 75.5-35.5 69.5h-4q2-61 5-159.5t6-212 4-230.5 1-213v-389h-154v1382h199l512-804q43-68 73.5-117t53.5-89 39-71 31-61h4q-4 70-7.5 164t-5.5 200.5-3 216-1 209.5v352h154v-1382h-154zm-6 1655q-82-143-219-144-51 0-88 17.5t-67 38-57.5 38-62.5 17.5q-74 0-131-94l-82 59q39 70 94.5 107t124.5 37q51 0 88-17.5t67-38 57.5-38 62.5-17.5q72 0 131 94l82-59z"/><glyph unicode="Ò" horiz-adv-x="1449" d="M1192 682q0 268-120 426t-347 158q-98 0-183-37t-148.5-108.5-99.5-178-36-240.5q0-131 29.5-238.5t89-185 146.5-119.5 202-42q98 0 183 36.5t148.5 108.5 99.5 178.5 36 241.5zm164 27q0-172-50.5-308.5t-140.5-229.5-207.5-141-250.5-48q-145 0-260 48t-194 139-119 219-40 286q0 172 50.5 308t140.5 229.5 207.5 141.5 250.5 48q145 0 260-48t194-139.5 119-219 40-285.5zm-561 784l-369 117 49 125 353-152z"/><glyph unicode="Ó" horiz-adv-x="1449" d="M1192 682q0 268-120 426t-347 158q-98 0-183-37t-148.5-108.5-99.5-178-36-240.5q0-131 29.5-238.5t89-185 146.5-119.5 202-42q98 0 183 36.5t148.5 108.5 99.5 178.5 36 241.5zm164 27q0-172-50.5-308.5t-140.5-229.5-207.5-141-250.5-48q-145 0-260 48t-194 139-119 219-40 286q0 172 50.5 308t140.5 229.5 207.5 141.5 250.5 48q145 0 260-48t194-139.5 119-219 40-285.5zm-695 784l-33 90 353 152 49-125z"/><glyph unicode="Ô" horiz-adv-x="1449" d="M1192 682q0 268-120 426t-347 158q-98 0-183-37t-148.5-108.5-99.5-178-36-240.5q0-131 29.5-238.5t89-185 146.5-119.5 202-42q98 0 183 36.5t148.5 108.5 99.5 178.5 36 241.5zm164 27q0-172-50.5-308.5t-140.5-229.5-207.5-141-250.5-48q-145 0-260 48t-194 139-119 219-40 286q0 172 50.5 308t140.5 229.5 207.5 141.5 250.5 48q145 0 260-48t194-139.5 119-219 40-285.5zm-349 780l-272 127-275-127-45 92 322 168 317-166z"/><glyph unicode="Õ" horiz-adv-x="1449" d="M1192 682q0 268-120 426t-347 158q-98 0-183-37t-148.5-108.5-99.5-178-36-240.5q0-131 29.5-238.5t89-185 146.5-119.5 202-42q98 0 183 36.5t148.5 108.5 99.5 178.5 36 241.5zm164 27q0-172-50.5-308.5t-140.5-229.5-207.5-141-250.5-48q-145 0-260 48t-194 139-119 219-40 286q0 172 50.5 308t140.5 229.5 207.5 141.5 250.5 48q145 0 260-48t194-139.5 119-219 40-285.5zm-283 946q-82-143-219-144-51 0-88 17.5t-67 38-57.5 38-62.5 17.5q-74 0-131-94l-82 59q39 70 94.5 107t124.5 37q51 0 88-17.5t67-38 57.5-38 62.5-17.5q72 0 131 94l82-59z"/><glyph unicode="Ö" horiz-adv-x="1449" d="M1192 682q0 268-120 426t-347 158q-98 0-183-37t-148.5-108.5-99.5-178-36-240.5q0-131 29.5-238.5t89-185 146.5-119.5 202-42q98 0 183 36.5t148.5 108.5 99.5 178.5 36 241.5zm164 27q0-172-50.5-308.5t-140.5-229.5-207.5-141-250.5-48q-145 0-260 48t-194 139-119 219-40 286q0 172 50.5 308t140.5 229.5 207.5 141.5 250.5 48q145 0 260-48t194-139.5 119-219 40-285.5zm-748 886q-2-43-26.5-68.5t-69.5-27.5q-43 2-69 28.5t-28 67.5q2 41 29 68t68 29q43-2 68.5-29t27.5-68zm436 0q-2-45-30.5-70.5t-67.5-25.5q-45 2-68.5 28.5t-25.5 67.5q2 41 28.5 69t65.5 28q41-2 68.5-27t29.5-70z"/><glyph unicode="×" d="M913 164l-354 354-354-354-86 86 354 354-354 354 94 95 354-355 355 355 86-86-355-355 355-354z"/><glyph unicode="Ø" horiz-adv-x="1449" d="M844 1257q-43 6-62.5 8.5t-58.5 2.5q-90 0-175-37t-149.5-108.5-102.5-177-38-240.5q0-172 45-301.5t152-206.5l415 1054zm346-577q0 184-50 316t-159 202l-416-1061q37-10 75-15t73-5q100 0 187 35.5t151.5 106.5 101.5 176.5 37 244.5zm164 20q-2-174-50.5-308t-137.5-225-207.5-138-260.5-47q-98 0-188 22l-86-213-117 47 86 213q-158 86-228.5 249t-70.5 380q0 172 51.5 306t139.5 226.5 205.5 140.5 252.5 48q47 0 92.5-5t88.5-14l80 203 116-47-78-201q154-72 234-240t78-397z"/><glyph unicode="Ù" horiz-adv-x="1427" d="M1241 524q0-266-138-404t-407-138q-154 0-255 38.5t-156.5 106.5-77 150.5-21.5 181.5v923h158v-909q0-80 16.5-144.5t56.5-113.5 111.5-76.5 180.5-27.5q195 0 286.5 92t91.5 309v870h154v-858zm-471 969l-369 117 49 125 353-152z"/><glyph unicode="Ú" horiz-adv-x="1427" d="M1241 524q0-266-138-404t-407-138q-154 0-255 38.5t-156.5 106.5-77 150.5-21.5 181.5v923h158v-909q0-80 16.5-144.5t56.5-113.5 111.5-76.5 180.5-27.5q195 0 286.5 92t91.5 309v870h154v-858zm-557 969l-33 90 353 152 49-125z"/><glyph unicode="Û" horiz-adv-x="1427" d="M1241 524q0-266-138-404t-407-138q-154 0-255 38.5t-156.5 106.5-77 150.5-21.5 181.5v923h158v-909q0-80 16.5-144.5t56.5-113.5 111.5-76.5 180.5-27.5q195 0 286.5 92t91.5 309v870h154v-858zm-248 965l-272 127-275-127-45 92 322 168 317-166z"/><glyph unicode="Ü" horiz-adv-x="1427" d="M1241 524q0-266-138-404t-407-138q-154 0-255 38.5t-156.5 106.5-77 150.5-21.5 181.5v923h158v-909q0-80 16.5-144.5t56.5-113.5 111.5-76.5 180.5-27.5q195 0 286.5 92t91.5 309v870h154v-858zm-651 1071q-2-43-26.5-68.5t-69.5-27.5q-43 2-69 28.5t-28 67.5q2 41 29 68t68 29q43-2 68.5-29t27.5-68zm436 0q-2-45-30.5-70.5t-67.5-25.5q-45 2-68.5 28.5t-25.5 67.5q2 41 28.5 69t65.5 28q41-2 68.5-27t29.5-70z"/><glyph unicode="Ý" horiz-adv-x="1079" d="M616 541v-541h-155v541l-453 841h174l252-475q31-61 56.5-114.5t52.5-114.5h2q27 59 54.5 118.5t57.5 114.5l248 471h166zm-112 952l-33 90 353 152 49-125z"/><glyph unicode="Þ" horiz-adv-x="1091" d="M889 733q0 147-94.5 233.5t-282.5 86.5q-51 0-98-3t-70-6v-628q23-2 72-7.5t102-5.5q180 0 275.5 92.5t95.5 237.5zm162 23q0-102-38-190.5t-110-153-174-100.5-225-36q-78 0-160 7v-283h-158v1382h158v-206q23 2 75 4t116 2q256 0 386-121t130-305z"/><glyph unicode="ß" horiz-adv-x="1202" d="M1112 299q0-68-27.5-126t-80-101-127-66.5-168.5-23.5q-55 0-106.5 5t-90.5 15l14 139q88-33 187-32 127 0 184 51t57 119q0 59-30.5 97t-77.5 67.5-100.5 58-100.5 65.5-77.5 90.5-30.5 135.5q0 61 21.5 103t54 73.5 70.5 56.5 70.5 52.5 54 61.5 21.5 83q0 82-58 120.5t-150 38.5q-135 0-208-80.5t-73-263.5v-1038h-154v1028q0 131 35 222t94.5 148.5 141.5 82 174 24.5q174 0 265-75.5t91-192.5q0-70-21.5-116t-54-78.5-71.5-56-71-48.5-54.5-54.5-22.5-76.5q0-55 31-93t78-68 101-58.5 101.5-66.5 78-90 30.5-132z"/><glyph unicode="à" horiz-adv-x="1064" d="M723 485q-131 0-222-16t-144.5-46-77-67-23.5-82q0-74 46-121t122-47q63 0 119.5 30t96.5 80 61.5 112.5 21.5 126.5v30zm6-485q0 78 2 127t8 88h-4q-18-49-52-91t-80-75-102.5-50-119.5-17q-123 0-201 73.5t-78 196.5q0 160 162 253t459 93v61q0 131-52.5 192.5t-176.5 61.5q-70 0-153-19.5t-157-51.5l-28 121q84 35 175 54t181 19q100 0 170-24.5t113-70.5 62.5-111.5 19.5-149.5v-491l1-98 3-91h-152zm-188 1174l-271 262 101 94 247-283z"/><glyph unicode="á" horiz-adv-x="1064" d="M723 485q-131 0-222-16t-144.5-46-77-67-23.5-82q0-74 46-121t122-47q63 0 119.5 30t96.5 80 61.5 112.5 21.5 126.5v30zm6-485q0 78 2 127t8 88h-4q-18-49-52-91t-80-75-102.5-50-119.5-17q-123 0-201 73.5t-78 196.5q0 160 162 253t459 93v61q0 131-52.5 192.5t-176.5 61.5q-70 0-153-19.5t-157-51.5l-28 121q84 35 175 54t181 19q100 0 170-24.5t113-70.5 62.5-111.5 19.5-149.5v-491l1-98 3-91h-152zm-219 1174l-78 73 248 283 100-94z"/><glyph unicode="â" horiz-adv-x="1064" d="M723 485q-131 0-222-16t-144.5-46-77-67-23.5-82q0-74 46-121t122-47q63 0 119.5 30t96.5 80 61.5 112.5 21.5 126.5v30zm6-485q0 78 2 127t8 88h-4q-18-49-52-91t-80-75-102.5-50-119.5-17q-123 0-201 73.5t-78 196.5q0 160 162 253t459 93v61q0 131-52.5 192.5t-176.5 61.5q-70 0-153-19.5t-157-51.5l-28 121q84 35 175 54t181 19q100 0 170-24.5t113-70.5 62.5-111.5 19.5-149.5v-491l1-98 3-91h-152zm-4 1178l-200 176-205-176-68 71 275 267 272-263z"/><glyph unicode="ã" horiz-adv-x="1064" d="M723 485q-131 0-222-16t-144.5-46-77-67-23.5-82q0-74 46-121t122-47q63 0 119.5 30t96.5 80 61.5 112.5 21.5 126.5v30zm6-485q0 78 2 127t8 88h-4q-18-49-52-91t-80-75-102.5-50-119.5-17q-123 0-201 73.5t-78 196.5q0 160 162 253t459 93v61q0 131-52.5 192.5t-176.5 61.5q-70 0-153-19.5t-157-51.5l-28 121q84 35 175 54t181 19q100 0 170-24.5t113-70.5 62.5-111.5 19.5-149.5v-491l1-98 3-91h-152zm129 1376q-39-70-93-108.5t-120-38.5q-49 0-85 17.5t-64.5 40-55 39.5-59.5 17q-70-2-125-98l-80 64q39 72 93.5 110.5t121.5 38.5q49 0 84-18.5t63.5-40 55.5-39 60-17.5q72 0 126 97l78-64z"/><glyph unicode="ä" horiz-adv-x="1064" d="M723 485q-131 0-222-16t-144.5-46-77-67-23.5-82q0-74 46-121t122-47q63 0 119.5 30t96.5 80 61.5 112.5 21.5 126.5v30zm6-485q0 78 2 127t8 88h-4q-18-49-52-91t-80-75-102.5-50-119.5-17q-123 0-201 73.5t-78 196.5q0 160 162 253t459 93v61q0 131-52.5 192.5t-176.5 61.5q-70 0-153-19.5t-157-51.5l-28 121q84 35 175 54t181 19q100 0 170-24.5t113-70.5 62.5-111.5 19.5-149.5v-491l1-98 3-91h-152zm-305 1346q0-41-27.5-70t-68.5-29-70 29-29 70 29 68.5 70 27.5 68.5-27.5 27.5-68.5zm385 0q0-41-27.5-70t-68.5-29-70 29-29 70 29 68.5 70 27.5 68.5-27.5 27.5-68.5z"/><glyph unicode="å" horiz-adv-x="1064" d="M723 485q-131 0-222-16t-144.5-46-77-67-23.5-82q0-74 46-121t122-47q63 0 119.5 30t96.5 80 61.5 112.5 21.5 126.5v30zm6-485q0 78 2 127t8 88h-4q-18-49-52-91t-80-75-102.5-50-119.5-17q-123 0-201 73.5t-78 196.5q0 160 162 253t459 93v61q0 131-52.5 192.5t-176.5 61.5q-70 0-153-19.5t-157-51.5l-28 121q84 35 175 54t181 19q100 0 170-24.5t113-70.5 62.5-111.5 19.5-149.5v-491l1-98 3-91h-152zm27 1366q0-92-61.5-156t-172.5-64q-100 0-157.5 52.5t-57.5 156.5q0 92 61.5 156t172.5 64q100 0 157.5-52.5t57.5-156.5zm-117-7q0 121-106 121-41 0-74-28.5t-33-89.5q0-121 105-121 41 0 74.5 28.5t33.5 89.5z"/><glyph unicode="æ" horiz-adv-x="1656" d="M723 485q-131 0-222-16t-144.5-46-77-67-23.5-82q0-74 46-121t122-47q63 0 119.5 30t96.5 80 61.5 112.5 21.5 126.5v30zm674 150q2 131-63.5 207t-182.5 76q-106 0-180-75t-92-208h518zm162-10q0-33-1.5-61.5t-3.5-41.5h-680q-8-213 76-313t254-100q76 0 149.5 13t149.5 42l23-121q-180-61-342-61-88 0-158 18t-120 51-81.5 77-50.5 97h-2q-23-47-59.5-91t-87-79-111.5-54-131-19q-125 0-203 73.5t-78 196.5q0 160 162 253t459 93v61q0 131-52.5 192.5t-176.5 61.5q-70 0-153-19.5t-157-51.5l-28 121q84 35 175 54t181 19q121 0 201-43t114-129h2q49 76 135.5 124t196.5 48q102 0 178-31.5t124-89 72-131 24-159.5z"/><glyph unicode="ç" horiz-adv-x="901" d="M842 43q-66-27-148-42t-164-15q-92 0-169.5 23.5t-139 78.5-96.5 150.5-35 234.5q0 125 32 228.5t93 177 152.5 113.5 207.5 40q147 0 261-45l-31-131q-55 23-119.5 36t-128.5 13q-72 0-129-29.5t-96-84-59.5-128-20.5-163.5q0-84 15.5-151.5t50-120 95-82 148.5-29.5q139 0 252 53zm-283-127q74-96 60-192.5t-107-204.5h-129q43 53 67.5 96t30 82-8 79-50.5 83z"/><glyph unicode="è" horiz-adv-x="1034" d="M776 625q2 139-63.5 216t-184.5 77q-109 0-183.5-77t-90.5-216h522zm158-4q0-35-1-66t-3-43h-680q-2-207 80-305t252-98q74 0 147.5 13t151.5 42l22-121q-180-61-342-61-233 0-352 129t-119 393q0 113 31 211t89 169.5 141 111.5 188 40q102 0 178-31.5t124-89 70.5-133 22.5-161.5zm-389 553l-271 262 101 94 247-283z"/><glyph unicode="é" horiz-adv-x="1034" d="M776 625q2 139-63.5 216t-184.5 77q-109 0-183.5-77t-90.5-216h522zm158-4q0-35-1-66t-3-43h-680q-2-207 80-305t252-98q74 0 147.5 13t151.5 42l22-121q-180-61-342-61-233 0-352 129t-119 393q0 113 31 211t89 169.5 141 111.5 188 40q102 0 178-31.5t124-89 70.5-133 22.5-161.5zm-416 553l-78 73 248 283 100-94z"/><glyph unicode="ê" horiz-adv-x="1034" d="M776 625q2 139-63.5 216t-184.5 77q-109 0-183.5-77t-90.5-216h522zm158-4q0-35-1-66t-3-43h-680q-2-207 80-305t252-98q74 0 147.5 13t151.5 42l22-121q-180-61-342-61-233 0-352 129t-119 393q0 113 31 211t89 169.5 141 111.5 188 40q102 0 178-31.5t124-89 70.5-133 22.5-161.5zm-201 557l-200 176-205-176-68 71 275 267 272-263z"/><glyph unicode="ë" horiz-adv-x="1034" d="M776 625q2 139-63.5 216t-184.5 77q-109 0-183.5-77t-90.5-216h522zm158-4q0-35-1-66t-3-43h-680q-2-207 80-305t252-98q74 0 147.5 13t151.5 42l22-121q-180-61-342-61-233 0-352 129t-119 393q0 113 31 211t89 169.5 141 111.5 188 40q102 0 178-31.5t124-89 70.5-133 22.5-161.5zm-496 725q0-41-27.5-70t-68.5-29-70 29-29 70 29 68.5 70 27.5 68.5-27.5 27.5-68.5zm385 0q0-41-27.5-70t-68.5-29-70 29-29 70 29 68.5 70 27.5 68.5-27.5 27.5-68.5z"/><glyph unicode="ì" horiz-adv-x="526" d="M186 0v1018h154v-1018h-154zm59 1161l-194 318 121 65 170-330z"/><glyph unicode="í" horiz-adv-x="526" d="M186 0v1018h154v-1018h-154zm88 1171l-90 62 205 303 115-76z"/><glyph unicode="î" horiz-adv-x="526" d="M186 0v1018h154v-1018h-154zm254 1178l-176 176-178-176-67 71 247 264 246-262z"/><glyph unicode="ï" horiz-adv-x="526" d="M186 0v1018h154v-1018h-154zm3 1346q0-41-28.5-70t-69.5-29-70 29-29 70 29 68.5 70 27.5 69.5-27.5 28.5-68.5zm350 0q0-41-28.5-70t-69.5-29q-43 0-71 29t-28 70q0 39 29 67.5t70 28.5 69.5-27.5 28.5-68.5z"/><glyph unicode="ð" horiz-adv-x="1112" d="M860 535q0 174-77.5 274t-227.5 100q-61 0-116.5-23.5t-99.5-72.5-68.5-125-24.5-174q0-190 84-295.5t233-105.5q63 0 116.5 23.5t94.5 74.5 63.5 132 22.5 192zm158 20q0-143-36-251.5t-100.5-179.5-151.5-106.5-189-35.5-186.5 31.5-143.5 97-92 164-33 229.5q0 111 33 207t95 168.5 151.5 113.5 197.5 41q76 0 140.5-25.5t95.5-78.5q-14 29-35 61.5t-31 50.5q-27 47-60.5 93.5t-78.5 97.5l-217-98-66 86 201 90q-33 31-71 61.5t-99 79.5l156 68q41-33 80.5-70t78.5-76l213 94 68-86-207-90q137-162 212-350t75-387z"/><glyph unicode="ñ" horiz-adv-x="1181" d="M842 0v657q0 127-42 189.5t-149 62.5q-68 0-125-31.5t-99-89-64.5-134-22.5-167.5v-487h-154v1018h152q0-53-4-117.5t-12-109.5l4-3q45 115 139 181.5t225 66.5q84 0 143.5-24.5t95.5-68.5 51-103.5 15-130.5v-709h-153zm98 1376q-39-70-93-108.5t-120-38.5q-49 0-85 17.5t-64.5 40-55 39.5-59.5 17q-70-2-125-98l-80 64q39 72 93.5 110.5t121.5 38.5q49 0 84-18.5t63.5-40 55.5-39 60-17.5q72 0 126 97l78-64z"/><glyph unicode="ò" horiz-adv-x="1110" d="M864 510q0 188-82 293.5t-225 105.5q-70 0-127-25.5t-98-76.5-62.5-126-21.5-173q0-188 81-292.5t224-104.5q68 0 124 23.5t98 72.5 65.5 125 23.5 178zm158 10q0-113-30.5-211t-92-172-153-114.5-207.5-40.5q-102 0-185.5 31.5t-142.5 96-91 162-32 226.5q0 113 32 211t93 171.5 152.5 114.5 207.5 41q102 0 185.5-31.5t141.5-96 90-162 32-226.5zm-442 654l-271 262 101 94 247-283z"/><glyph unicode="ó" horiz-adv-x="1110" d="M864 510q0 188-82 293.5t-225 105.5q-70 0-127-25.5t-98-76.5-62.5-126-21.5-173q0-188 81-292.5t224-104.5q68 0 124 23.5t98 72.5 65.5 125 23.5 178zm158 10q0-113-30.5-211t-92-172-153-114.5-207.5-40.5q-102 0-185.5 31.5t-142.5 96-91 162-32 226.5q0 113 32 211t93 171.5 152.5 114.5 207.5 41q102 0 185.5-31.5t141.5-96 90-162 32-226.5zm-473 654l-78 73 248 283 100-94z"/><glyph unicode="ô" horiz-adv-x="1110" d="M864 510q0 188-82 293.5t-225 105.5q-70 0-127-25.5t-98-76.5-62.5-126-21.5-173q0-188 81-292.5t224-104.5q68 0 124 23.5t98 72.5 65.5 125 23.5 178zm158 10q0-113-30.5-211t-92-172-153-114.5-207.5-40.5q-102 0-185.5 31.5t-142.5 96-91 162-32 226.5q0 113 32 211t93 171.5 152.5 114.5 207.5 41q102 0 185.5-31.5t141.5-96 90-162 32-226.5zm-265 658l-200 176-205-176-68 71 275 267 272-263z"/><glyph unicode="õ" horiz-adv-x="1110" d="M864 510q0 188-82 293.5t-225 105.5q-70 0-127-25.5t-98-76.5-62.5-126-21.5-173q0-188 81-292.5t224-104.5q68 0 124 23.5t98 72.5 65.5 125 23.5 178zm158 10q0-113-30.5-211t-92-172-153-114.5-207.5-40.5q-102 0-185.5 31.5t-142.5 96-91 162-32 226.5q0 113 32 211t93 171.5 152.5 114.5 207.5 41q102 0 185.5-31.5t141.5-96 90-162 32-226.5zm-117 856q-39-70-93-108.5t-120-38.5q-49 0-85 17.5t-64.5 40-55 39.5-59.5 17q-70-2-125-98l-80 64q39 72 93.5 110.5t121.5 38.5q49 0 84-18.5t63.5-40 55.5-39 60-17.5q72 0 126 97l78-64z"/><glyph unicode="ö" horiz-adv-x="1110" d="M864 510q0 188-82 293.5t-225 105.5q-70 0-127-25.5t-98-76.5-62.5-126-21.5-173q0-188 81-292.5t224-104.5q68 0 124 23.5t98 72.5 65.5 125 23.5 178zm158 10q0-113-30.5-211t-92-172-153-114.5-207.5-40.5q-102 0-185.5 31.5t-142.5 96-91 162-32 226.5q0 113 32 211t93 171.5 152.5 114.5 207.5 41q102 0 185.5-31.5t141.5-96 90-162 32-226.5zm-561 826q0-41-27.5-70t-68.5-29-70 29-29 70 29 68.5 70 27.5 68.5-27.5 27.5-68.5zm385 0q0-41-27.5-70t-68.5-29-70 29-29 70 29 68.5 70 27.5 68.5-27.5 27.5-68.5z"/><glyph unicode="÷" d="M670 197q0-47-32-79t-79-32q-45 0-76.5 32t-31.5 79q0 45 31.5 76.5t76.5 31.5q47 0 79-31.5t32-76.5zm-582 348v129h950v-129h-950zm582 475q0-47-32-78t-79-31q-45 0-76.5 31t-31.5 78 31.5 77.5 76.5 30.5q47 0 79-30.5t32-77.5z"/><glyph unicode="ø" horiz-adv-x="1110" d="M690 885q-61 29-131 28-72 0-131-25.5t-101-77.5-64.5-128-22.5-174q0-100 24.5-180t63.5-127zm182-375q0 203-90 307l-362-684q66-29 133-29 72 0 131 26t101 78 64.5 128 22.5 174zm150 10q0-113-30.5-211t-92-172-153-114.5-207.5-40.5q-104 0-183 32l-100-192-102 49 104 195q-82 61-126 169.5t-44 262.5q0 113 32 211t93 171.5 152.5 114.5 207.5 41q102 0 181-32l100 192 102-49-102-195q80-61 124-169.5t44-262.5z"/><glyph unicode="ù" horiz-adv-x="1181" d="M844 0q0 51 4 115.5t12 111.5l-4 2q-43-113-136-180t-228-67q-88 0-146.5 25.5t-94.5 69.5-50.5 104.5-14.5 127.5v709h154v-658q0-121 40-186t150-65q68 0 125.5 31.5t99.5 88 64.5 134 22.5 167.5v488h153v-1018h-151zm-250 1174l-271 262 101 94 247-283z"/><glyph unicode="ú" horiz-adv-x="1181" d="M844 0q0 51 4 115.5t12 111.5l-4 2q-43-113-136-180t-228-67q-88 0-146.5 25.5t-94.5 69.5-50.5 104.5-14.5 127.5v709h154v-658q0-121 40-186t150-65q68 0 125.5 31.5t99.5 88 64.5 134 22.5 167.5v488h153v-1018h-151zm-252 1174l-78 73 248 283 100-94z"/><glyph unicode="û" horiz-adv-x="1181" d="M844 0q0 51 4 115.5t12 111.5l-4 2q-43-113-136-180t-228-67q-88 0-146.5 25.5t-94.5 69.5-50.5 104.5-14.5 127.5v709h154v-658q0-121 40-186t150-65q68 0 125.5 31.5t99.5 88 64.5 134 22.5 167.5v488h153v-1018h-151zm-54 1178l-200 176-205-176-68 71 275 267 272-263z"/><glyph unicode="ü" horiz-adv-x="1181" d="M844 0q0 51 4 115.5t12 111.5l-4 2q-43-113-136-180t-228-67q-88 0-146.5 25.5t-94.5 69.5-50.5 104.5-14.5 127.5v709h154v-658q0-121 40-186t150-65q68 0 125.5 31.5t99.5 88 64.5 134 22.5 167.5v488h153v-1018h-151zm-350 1346q0-41-27.5-70t-68.5-29-70 29-29 70 29 68.5 70 27.5 68.5-27.5 27.5-68.5zm385 0q0-41-27.5-70t-68.5-29-70 29-29 70 29 68.5 70 27.5 68.5-27.5 27.5-68.5z"/><glyph unicode="ý" horiz-adv-x="964" d="M526-96q-45-121-92-203t-102.5-132-124-72.5-154.5-22.5q-33 0-62.5 4t-43.5 8l16 133q14-4 48-9t71-5q47 0 85 13t71.5 45 64.5 85 62 133l47 119-389 1018h176l213-586q25-70 43-128t37-120h2q12 49 38.5 131t61.5 181l182 522h168zm-35 1270l-78 73 248 283 100-94z"/><glyph unicode="þ" horiz-adv-x="1142" d="M887 543q0 176-60.5 271t-183.5 95q-78 0-134-40t-94-101-56.5-135-18.5-141v-357q86-27 199-26 80 0 143 24.5t109.5 76.5 71 135 24.5 198zm162 12q0-274-139.5-420.5t-381.5-146.5q-53 0-95 2t-93 12v-512h-154v2005h154v-459q0-59-3-121.5t-11-111.5l4-2q43 106 132 170.5t212 64.5q180 0 277.5-121.5t97.5-359.5z"/><glyph unicode="ÿ" horiz-adv-x="964" d="M526-96q-45-121-92-203t-102.5-132-124-72.5-154.5-22.5q-33 0-62.5 4t-43.5 8l16 133q14-4 48-9t71-5q47 0 85 13t71.5 45 64.5 85 62 133l47 119-389 1018h176l213-586q25-70 43-128t37-120h2q12 49 38.5 131t61.5 181l182 522h168zm-135 1442q0-41-27.5-70t-68.5-29-70 29-29 70 29 68.5 70 27.5 68.5-27.5 27.5-68.5zm385 0q0-41-27.5-70t-68.5-29-70 29-29 70 29 68.5 70 27.5 68.5-27.5 27.5-68.5z"/><glyph unicode="Ā" horiz-adv-x="1251" d="M682 1036q-18 55-32.5 99.5t-28.5 91.5h-3q-14-49-28.5-94.5t-30.5-92.5l-207-571h535zm365-1036l-121 342h-615l-121-342h-163l508 1382h184l506-1382h-178zm-697 1538v111h551v-111h-551z"/><glyph unicode="ā" horiz-adv-x="1064" d="M723 485q-131 0-222-16t-144.5-46-77-67-23.5-82q0-74 46-121t122-47q63 0 119.5 30t96.5 80 61.5 112.5 21.5 126.5v30zm6-485q0 78 2 127t8 88h-4q-18-49-52-91t-80-75-102.5-50-119.5-17q-123 0-201 73.5t-78 196.5q0 160 162 253t459 93v61q0 131-52.5 192.5t-176.5 61.5q-70 0-153-19.5t-157-51.5l-28 121q84 35 175 54t181 19q100 0 170-24.5t113-70.5 62.5-111.5 19.5-149.5v-491l1-98 3-91h-152zm-457 1276v117h502v-117h-502z"/><glyph unicode="Ă" horiz-adv-x="1251" d="M682 1036q-18 55-32.5 99.5t-28.5 91.5h-3q-14-49-28.5-94.5t-30.5-92.5l-207-571h535zm365-1036l-121 342h-615l-121-342h-163l508 1382h184l506-1382h-178zm-171 1739q0-102-68.5-170t-189.5-68q-127 0-189.5 69.5t-62.5 168.5h103q0-53 43-91t108-38q70 0 111 38t41 91h104z"/><glyph unicode="ă" horiz-adv-x="1064" d="M723 485q-131 0-222-16t-144.5-46-77-67-23.5-82q0-74 46-121t122-47q63 0 119.5 30t96.5 80 61.5 112.5 21.5 126.5v30zm6-485q0 78 2 127t8 88h-4q-18-49-52-91t-80-75-102.5-50-119.5-17q-123 0-201 73.5t-78 196.5q0 160 162 253t459 93v61q0 131-52.5 192.5t-176.5 61.5q-70 0-153-19.5t-157-51.5l-28 121q84 35 175 54t181 19q100 0 170-24.5t113-70.5 62.5-111.5 19.5-149.5v-491l1-98 3-91h-152zm45 1468q0-53-15.5-99t-45-83-78-57.5-109.5-20.5q-63 0-109.5 20.5t-76 57.5-44 83-14.5 99h107q0-61 37-102t102-41q63 0 100 38t37 105h109z"/><glyph unicode="Ą" horiz-adv-x="1251" d="M682 1036q-16 45-25.5 76t-35.5 115h-3q-12-43-28.5-95.5t-30.5-91.5l-207-571h535zm610-1427q-49-43-103-64.5t-114-21.5q-98 0-152.5 48t-54.5 130q0 76 44 153.5t135 145.5l-121 342h-615l-121-342h-163l508 1382h184l506-1382q-113-70-160-138.5t-47-131.5q0-43 22.5-64.5t63.5-21.5q63 0 135 53z"/><glyph unicode="ą" horiz-adv-x="1064" d="M723 485q-131 0-222-16t-144.5-46-77-67-23.5-82q0-74 46-121t122-47q63 0 119.5 30t96.5 80 61.5 112.5 21.5 126.5v30zm264-876q-47-41-102.5-63.5t-112.5-22.5q-98 0-152.5 48t-54.5 130q0 39 11.5 78t35 79 59.5 78.5 85 75.5q-8 49-12.5 101.5t-2.5 95.5l-2 2q-43-100-138-164.5t-220-64.5q-123 0-201 73.5t-78 196.5q0 160 162 253t459 93v61q0 131-52.5 192.5t-176.5 61.5q-70 0-153-19.5t-157-51.5l-28 121q84 35 175 54t181 19q100 0 170-24.5t113-70.5 62.5-111.5 19.5-149.5v-309q0-96 8-193.5t22-177.5q-104-76-148-141.5t-44-128.5q0-86 84-86 61 0 137 53z"/><glyph unicode="Ć" horiz-adv-x="1208" d="M1114 61q-82-35-183.5-55t-205.5-20q-158 0-275.5 48t-195.5 137-116 213-38 275q0 160 40 294t122 233.5 210 155 300 55.5q78 0 165-12.5t159-32.5l-27-146q-80 27-162 42.5t-157 15.5q-123 0-215.5-44t-151.5-124-87-184.5-28-225.5q0-272 123-417.5t367-145.5q82 0 170 19.5t155 52.5zm-465 1432l-33 90 353 152 49-125z"/><glyph unicode="ć" horiz-adv-x="901" d="M842 43q-66-27-148-42t-164-15q-92 0-169.5 23.5t-139 78.5-96.5 150.5-35 234.5q0 125 32 228.5t93 177 152.5 113.5 207.5 40q147 0 261-45l-31-131q-55 23-119.5 36t-128.5 13q-72 0-129-29.5t-96-84-59.5-128-20.5-163.5q0-84 15.5-151.5t50-120 95-82 148.5-29.5q139 0 252 53zm-330 1131l-78 73 248 283 100-94z"/><glyph unicode="Č" horiz-adv-x="1208" d="M1114 61q-82-35-183.5-55t-205.5-20q-158 0-275.5 48t-195.5 137-116 213-38 275q0 160 40 294t122 233.5 210 155 300 55.5q78 0 165-12.5t159-32.5l-27-146q-80 27-162 42.5t-157 15.5q-123 0-215.5-44t-151.5-124-87-184.5-28-225.5q0-272 123-417.5t367-145.5q82 0 170 19.5t155 52.5zm-397 1428l-318 168 47 92 273-127 274 127 45-90z"/><glyph unicode="č" horiz-adv-x="901" d="M842 43q-66-27-148-42t-164-15q-92 0-169.5 23.5t-139 78.5-96.5 150.5-35 234.5q0 125 32 228.5t93 177 152.5 113.5 207.5 40q147 0 261-45l-31-131q-55 23-119.5 36t-128.5 13q-72 0-129-29.5t-96-84-59.5-128-20.5-163.5q0-84 15.5-151.5t50-120 95-82 148.5-29.5q139 0 252 53zm-301 1135l-271 260 70 78 203-177 205 177 67-74z"/><glyph unicode="Ď" horiz-adv-x="1398" d="M1133 694q0 567-564 568-49 0-87-1t-138-6v-1118q41-6 97.5-10t101.5-4q133 0 240.5 35t186.5 105.5 121 178 42 252.5zm163 11q0-174-56-308.5t-159.5-223.5-245-134-313.5-45q-76 0-184.5 3t-151.5 3v1382q49 0 186.5 3.5t213.5 3.5q170 0 302-41t223-125 138-214 47-304zm-679 784l-318 168 47 92 273-127 274 127 45-90z"/><glyph unicode="ď" horiz-adv-x="1189" d="M803 885q-104 25-201 24-158 2-251-101t-95-333q0-174 60.5-270t183.5-96q76 0 134 39.5t95 102 55.5 135.5 18.5 140v359zm2-885q0 47 4 110.5t14 110.5l-4 2q-43-111-137-176t-213-65q-188 0-281.5 129t-93.5 352q0 135 37 241.5t105.5 178 164 109.5 213.5 38q45 0 90.5-3t98.5-7v475h153v-1495h-151zm368 1165l-104 33 117 350 131-39z"/><glyph unicode="Đ" horiz-adv-x="1415" d="M1149 694q0 281-141.5 424.5t-421.5 143.5q-49 0-122-2.5t-106-4.5v-483h314v-121h-314v-514q20-2 46-5t53.5-5 53.5-3 48-1q133 0 240.5 35t186.5 105.5 121 178 42 252.5zm166 11q0-174-56.5-307.5t-160-223.5-245.5-135-314-45q-74 0-183.5 3t-150.5 3v651h-199v121h199v610q49 0 185 3.5t212 3.5q346 0 529.5-169t183.5-515z"/><glyph unicode="đ" horiz-adv-x="1142" d="M803 885q-100 25-199 24-80 0-144.5-25.5t-109.5-77.5-69.5-135-24.5-196q0-176 60.5-271t183.5-95q74 0 131 37.5t95 100 57.5 136.5 19.5 143v359zm153 332v-1217h-151q0 55 4 117.5t14 103.5l-4 2q-43-111-136-176t-214-65q-184 0-279.5 127t-95.5 354q0 135 37 240.5t104.5 178 164 110.5 214.5 38q43 0 86-2t103-8v197h-246v108h246v170h153v-170h154v-108h-154z"/><glyph unicode="Ē" horiz-adv-x="1052" d="M186 0v1382h719v-127h-561v-479h516v-127h-516v-518h561v-131h-719zm72 1538v111h551v-111h-551z"/><glyph unicode="ē" horiz-adv-x="1034" d="M776 625q2 139-63.5 216t-184.5 77q-109 0-183.5-77t-90.5-216h522zm158-4q0-35-1-66t-3-43h-680q-2-207 80-305t252-98q74 0 147.5 13t151.5 42l22-121q-180-61-342-61-233 0-352 129t-119 393q0 113 31 211t89 169.5 141 111.5 188 40q102 0 178-31.5t124-89 70.5-133 22.5-161.5zm-662 655v117h502v-117h-502z"/><glyph unicode="Ė" horiz-adv-x="1052" d="M186 0v1382h719v-127h-561v-479h516v-127h-516v-518h561v-131h-719zm457 1602q0-43-30.5-74t-71.5-31q-43 0-74 29.5t-31 75.5q0 43 31 73.5t74 30.5 72.5-29.5 29.5-74.5z"/><glyph unicode="ė" horiz-adv-x="1034" d="M776 625q2 139-63.5 216t-184.5 77q-109 0-183.5-77t-90.5-216h522zm158-4q0-35-1-66t-3-43h-680q-2-207 80-305t252-98q74 0 147.5 13t151.5 42l22-121q-180-61-342-61-233 0-352 129t-119 393q0 113 31 211t89 169.5 141 111.5 188 40q102 0 178-31.5t124-89 70.5-133 22.5-161.5zm-299 726q0-43-30.5-72.5t-71.5-29.5q-43 0-74 29.5t-31 72.5 31 74 74 31 72.5-30 29.5-75z"/><glyph unicode="Ę" horiz-adv-x="1052" d="M956-391q-47-41-102-63.5t-115-22.5q-96 0-150 48t-54 130q0 86 53 169t129 130h-531v1382h719v-127h-561v-479h516v-127h-516v-518h561v-123q-45-18-85-50t-70.5-71-48-79.5-17.5-77.5q0-43 21.5-64.5t62.5-21.5q61 0 137 53z"/><glyph unicode="ę" horiz-adv-x="1034" d="M903 45q-53-16-105.5-49t-94-76-67.5-92-26-98q0-86 86-86 63 0 135 53l52-88q-96-86-215-86-100 0-153.5 48t-53.5 130q0 72 42 148.5t122 138.5q-16-2-39-3t-39-1q-104 0-188.5 29.5t-143.5 92-92 161-33 237.5q0 113 31 211t88 168.5 140 111.5 190 41q104 0 180-33.5t123-90 69.5-132 22.5-159.5q0-20-1-52t-3-57h-680q-4-211 79-307t253-96q145 0 299 55zm-127 580q4 141-63.5 217t-184.5 76q-109 0-183.5-76t-90.5-217h522z"/><glyph unicode="Ě" horiz-adv-x="1052" d="M186 0v1382h719v-127h-561v-479h516v-127h-516v-518h561v-131h-719zm339 1489l-318 168 47 92 273-127 274 127 45-90z"/><glyph unicode="ě" horiz-adv-x="1034" d="M776 625q2 139-63.5 216t-184.5 77q-109 0-183.5-77t-90.5-216h522zm158-4q0-35-1-66t-3-43h-680q-2-207 80-305t252-98q74 0 147.5 13t151.5 42l22-121q-180-61-342-61-233 0-352 129t-119 393q0 113 31 211t89 169.5 141 111.5 188 40q102 0 178-31.5t124-89 70.5-133 22.5-161.5zm-405 557l-271 260 70 78 203-177 205 177 67-74z"/><glyph unicode="Ğ" horiz-adv-x="1402" d="M1227 59q-104-39-222-58t-229-19q-154 0-282.5 46t-218 134-135.5 215-46 285q0 164 49.5 302t145.5 237 230 149.5 308 50.5q98 0 192.5-15.5t186.5-44.5l-35-143q-90 35-179 52.5t-183 17.5q-106 0-206.5-32t-178.5-107.5-119-182-45-260.5q0-137 37-242.5t108.5-179.5 173-110.5 222.5-36.5q76 0 141.5 10t126.5 31v538h158v-637zm-185 1680q0-102-68.5-170t-189.5-68q-127 0-189.5 69.5t-62.5 168.5h103q0-53 43-91t108-38q70 0 111 38t41 91h104z"/><glyph unicode="ğ" horiz-adv-x="1087" d="M872-172q0 86-60 133t-194 51l-176 6-53 5q-74-45-111.5-102.5t-37.5-119.5q0-49 20.5-88t58-65.5 92-40 121.5-13.5q164 0 252 65t88 169zm-104 846q0 109-65.5 176.5t-180.5 67.5q-113 0-178-68t-65-176q0-109 65.5-176.5t177.5-67.5q115 0 180.5 67.5t65.5 176.5zm260-826q0-82-37-151.5t-104.5-119.5-164.5-76.5-214-26.5q-201 0-314.5 78.5t-113.5 222.5q0 86 50 159.5t128 124.5q-45 23-67.5 60t-22.5 84q0 49 27.5 91t80.5 79q-74 47-111.5 122.5t-37.5 163.5q0 80 26.5 149t79 120 128 79.5 174.5 28.5q35 0 69.5-5t67.5-13h342v-121h-166q35-43 53.5-95t18.5-112q0-80-27-148.5t-79-119.5-128-80-174-29q-33 0-62.5 3t-58.5 10q-31-20-48-44t-17-49q0-37 37.5-58t125.5-23l170-7q184-6 276.5-84t92.5-213zm-241 1620q0-53-15.5-99t-45-83-78-57.5-109.5-20.5q-63 0-109.5 20.5t-76 57.5-44 83-14.5 99h107q0-61 37-102t102-41q63 0 100 38t37 105h109z"/><glyph unicode="Ģ" horiz-adv-x="1402" d="M1227 59q-104-39-222-58t-229-19q-154 0-282.5 46t-218 134-135.5 215-46 285q0 164 49.5 302t145.5 237 230 149.5 308 50.5q98 0 192.5-15.5t186.5-44.5l-35-143q-90 35-179 52.5t-183 17.5q-106 0-206.5-32t-178.5-107.5-119-182-45-260.5q0-137 37-242.5t108.5-179.5 173-110.5 222.5-36.5q76 0 141.5 10t126.5 31v538h158v-637zm-629-491q53 45 72.5 83t19.5 66q0 18-4 28.5t-10.5 20-10.5 19.5-4 27q0 35 23.5 60.5t64.5 25.5q45 0 72-32t27-79q0-55-43-127t-158-149z"/><glyph unicode="ģ" horiz-adv-x="1087" d="M872-172q0 86-60 133t-194 51l-176 6-53 5q-74-45-111.5-102.5t-37.5-119.5q0-49 20.5-88t58-65.5 92-40 121.5-13.5q164 0 252 65t88 169zm-104 846q0 109-65.5 176.5t-180.5 67.5q-113 0-178-68t-65-176q0-109 65.5-176.5t177.5-67.5q115 0 180.5 67.5t65.5 176.5zm260-826q0-82-37-151.5t-104.5-119.5-164.5-76.5-214-26.5q-201 0-314.5 78.5t-113.5 222.5q0 86 50 159.5t128 124.5q-45 23-67.5 60t-22.5 84q0 49 27.5 91t80.5 79q-74 47-111.5 122.5t-37.5 163.5q0 80 26.5 149t79 120 128 79.5 174.5 28.5q35 0 69.5-5t67.5-13h342v-121h-166q35-43 53.5-95t18.5-112q0-80-27-148.5t-79-119.5-128-80-174-29q-33 0-62.5 3t-58.5 10q-31-20-48-44t-17-49q0-37 37.5-58t125.5-23l170-7q184-6 276.5-84t92.5-213zm-500 1313q-39 0-67.5 31t-28.5 82q0 61 47 134t154 142l47-59q-49-41-70.5-78t-21.5-70q0-16 4-26t11-22.5 10-22.5 3-25q0-37-25.5-61.5t-62.5-24.5z"/><glyph unicode="Ī" horiz-adv-x="530" d="M186 0v1382h158v-1382h-158zm-195 1538v111h551v-111h-551z"/><glyph unicode="ī" horiz-adv-x="526" d="M186 0v1018h154v-1018h-154zm-155 1276v117h469v-117h-469z"/><glyph unicode="Į" horiz-adv-x="530" d="M461-391q-47-41-101.5-63.5t-113.5-22.5q-98 0-152.5 48t-54.5 130q0 37 9 75t27.5 74.5 46.5 75.5 64 78v1378h158v-1382q-84-76-120-144.5t-36-125.5q0-43 22.5-64.5t63.5-21.5q59 0 136 53z"/><glyph unicode="į" horiz-adv-x="526" d="M461-391q-47-41-102.5-63.5t-114.5-22.5q-96 0-150.5 48t-54.5 130q0 74 37 148.5t110 154.5v1014h154v-1018q-82-76-117-144.5t-35-125.5q0-86 84-86 61 0 138 53zm-90 1737q0-43-32-74t-75-31q-45 0-75.5 29.5t-30.5 75.5q0 43 30.5 73.5t75.5 30.5q43 0 75-30.5t32-73.5z"/><glyph unicode="İ" horiz-adv-x="530" d="M186 0v1382h158v-1382h-158zm189 1602q0-43-30.5-74t-71.5-31q-43 0-74 29.5t-31 75.5q0 43 31 73.5t74 30.5 72.5-29.5 29.5-74.5z"/><glyph unicode="ı" horiz-adv-x="526" d="M186 0v1018h154v-1018h-154z"/><glyph unicode="Ķ" horiz-adv-x="1185" d="M932 0l-588 694v-694h-158v1382h158v-661l590 661h190l-612-665 637-717h-217zm-473-432q53 45 72.5 83t19.5 66q0 18-4 28.5t-10.5 20-10.5 19.5-4 27q0 35 23.5 60.5t64.5 25.5q45 0 72-32t27-79q0-55-43-127t-158-149z"/><glyph unicode="ķ" horiz-adv-x="987" d="M741 0l-401 535v-535h-154v1495h154v-934l383 457h178l-399-459 438-559h-199zm-380-432q53 45 72.5 83t19.5 66q0 18-4 28.5t-10.5 20-10.5 19.5-4 27q0 35 23.5 60.5t64.5 25.5q45 0 72-32t27-79q0-55-43-127t-158-149z"/><glyph unicode="Ĺ" horiz-adv-x="870" d="M186 0v1382h158v-1251h512v-131h-670zm142 1493l-33 90 353 152 49-125z"/><glyph unicode="ĺ" horiz-adv-x="526" d="M186 0v1495h154v-1495h-154zm23 1616l-33 90 353 152 49-125z"/><glyph unicode="Ļ" horiz-adv-x="870" d="M186 0v1382h158v-1251h512v-131h-670zm189-432q53 45 72.5 83t19.5 66q0 18-4 28.5t-10.5 20-10.5 19.5-4 27q0 35 23.5 60.5t64.5 25.5q45 0 72-32t27-79q0-55-43-127t-158-149z"/><glyph unicode="ļ" horiz-adv-x="526" d="M186 0v1495h154v-1495h-154zm-71-432q53 45 72.5 83t19.5 66q0 18-4 28.5t-10.5 20-10.5 19.5-4 27q0 35 23.5 60.5t64.5 25.5q45 0 72-32t27-79q0-55-43-127t-158-149z"/><glyph unicode="Ľ" horiz-adv-x="874" d="M186 0v1382h158v-1251h512v-131h-670zm403 1257l-90 60 213 299 115-74z"/><glyph unicode="ľ" horiz-adv-x="571" d="M186 0v1495h154v-1495h-154zm371 1165l-104 33 117 350 131-39z"/><glyph unicode="Ł" horiz-adv-x="888" d="M205 0v741l-170-77-37 116 207 94v508h155v-434l238 109 37-117-275-125v-684h514v-131h-669z"/><glyph unicode="ł" horiz-adv-x="589" d="M377 858v-858h-154v774l-137-80-41 109 178 102v590h154v-504l149 86 43-108z"/><glyph unicode="Ń" horiz-adv-x="1421" d="M1081 0h-6l-543 852q-41 63-71.5 114.5t-54 92.5-43 75.5-35.5 69.5h-4q2-61 5-159.5t6-212 4-230.5 1-213v-389h-154v1382h199l512-804q43-68 73.5-117t53.5-89 39-71 31-61h4q-4 70-7.5 164t-5.5 200.5-3 216-1 209.5v352h154v-1382h-154zm-405 1493l-33 90 353 152 49-125z"/><glyph unicode="ń" horiz-adv-x="1181" d="M842 0v657q0 127-42 189.5t-149 62.5q-68 0-125-31.5t-99-89-64.5-134-22.5-167.5v-487h-154v1018h152q0-53-4-117.5t-12-109.5l4-3q45 115 139 181.5t225 66.5q84 0 143.5-24.5t95.5-68.5 51-103.5 15-130.5v-709h-153zm-236 1174l-78 73 248 283 100-94z"/><glyph unicode="Ņ" horiz-adv-x="1421" d="M1081 0h-6l-543 852q-41 63-71.5 114.5t-54 92.5-43 75.5-35.5 69.5h-4q2-61 5-159.5t6-212 4-230.5 1-213v-389h-154v1382h199l512-804q43-68 73.5-117t53.5-89 39-71 31-61h4q-4 70-7.5 164t-5.5 200.5-3 216-1 209.5v352h154v-1382h-154zm-518-432q53 45 72.5 83t19.5 66q0 18-4 28.5t-10.5 20-10.5 19.5-4 27q0 35 23.5 60.5t64.5 25.5q45 0 72-32t27-79q0-55-43-127t-158-149z"/><glyph unicode="ņ" horiz-adv-x="1181" d="M842 0v657q0 127-42 189.5t-149 62.5q-68 0-125-31.5t-99-89-64.5-134-22.5-167.5v-487h-154v1018h152q0-53-4-117.5t-12-109.5l4-3q45 115 139 181.5t225 66.5q84 0 143.5-24.5t95.5-68.5 51-103.5 15-130.5v-709h-153zm-393-432q53 45 72.5 83t19.5 66q0 18-4 28.5t-10.5 20-10.5 19.5-4 27q0 35 23.5 60.5t64.5 25.5q45 0 72-32t27-79q0-55-43-127t-158-149z"/><glyph unicode="Ň" horiz-adv-x="1421" d="M1081 0h-6l-543 852q-41 63-71.5 114.5t-54 92.5-43 75.5-35.5 69.5h-4q2-61 5-159.5t6-212 4-230.5 1-213v-389h-154v1382h199l512-804q43-68 73.5-117t53.5-89 39-71 31-61h4q-4 70-7.5 164t-5.5 200.5-3 216-1 209.5v352h154v-1382h-154zm-356 1489l-318 168 47 92 273-127 274 127 45-90z"/><glyph unicode="ň" horiz-adv-x="1181" d="M842 0v657q0 127-42 189.5t-149 62.5q-68 0-125-31.5t-99-89-64.5-134-22.5-167.5v-487h-154v1018h152q0-53-4-117.5t-12-109.5l4-3q45 115 139 181.5t225 66.5q84 0 143.5-24.5t95.5-68.5 51-103.5 15-130.5v-709h-153zm-244 1178l-271 260 70 78 203-177 205 177 67-74z"/><glyph unicode="Ō" horiz-adv-x="1449" d="M1192 682q0 268-120 426t-347 158q-98 0-183-37t-148.5-108.5-99.5-178-36-240.5q0-131 29.5-238.5t89-185 146.5-119.5 202-42q98 0 183 36.5t148.5 108.5 99.5 178.5 36 241.5zm164 27q0-172-50.5-308.5t-140.5-229.5-207.5-141-250.5-48q-145 0-260 48t-194 139-119 219-40 286q0 172 50.5 308t140.5 229.5 207.5 141.5 250.5 48q145 0 260-48t194-139.5 119-219 40-285.5zm-904 829v111h551v-111h-551z"/><glyph unicode="ō" horiz-adv-x="1110" d="M864 510q0 188-82 293.5t-225 105.5q-70 0-127-25.5t-98-76.5-62.5-126-21.5-173q0-188 81-292.5t224-104.5q68 0 124 23.5t98 72.5 65.5 125 23.5 178zm158 10q0-113-30.5-211t-92-172-153-114.5-207.5-40.5q-102 0-185.5 31.5t-142.5 96-91 162-32 226.5q0 113 32 211t93 171.5 152.5 114.5 207.5 41q102 0 185.5-31.5t141.5-96 90-162 32-226.5zm-711 756v117h502v-117h-502z"/><glyph unicode="Ő" horiz-adv-x="1449" d="M1192 682q0 268-120 426t-347 158q-98 0-183-37t-148.5-108.5-99.5-178-36-240.5q0-131 29.5-238.5t89-185 146.5-119.5 202-42q98 0 183 36.5t148.5 108.5 99.5 178.5 36 241.5zm164 27q0-172-50.5-308.5t-140.5-229.5-207.5-141-250.5-48q-145 0-260 48t-194 139-119 219-40 286q0 172 50.5 308t140.5 229.5 207.5 141.5 250.5 48q145 0 260-48t194-139.5 119-219 40-285.5zm-791 782l-78 74 222 250 98-93zm346 0l-76 74 259 245 94-94z"/><glyph unicode="ő" horiz-adv-x="1110" d="M864 510q0 188-82 293.5t-225 105.5q-70 0-127-25.5t-98-76.5-62.5-126-21.5-173q0-188 81-292.5t224-104.5q68 0 124 23.5t98 72.5 65.5 125 23.5 178zm158 10q0-113-30.5-211t-92-172-153-114.5-207.5-40.5q-102 0-185.5 31.5t-142.5 96-91 162-32 226.5q0 113 32 211t93 171.5 152.5 114.5 207.5 41q102 0 185.5-31.5t141.5-96 90-162 32-226.5zm-608 658l-78 69 232 275 100-86zm342 0l-78 69 252 264 99-88z"/><glyph unicode="Œ" horiz-adv-x="1792" d="M944 1237q-47 14-104.5 21.5t-114.5 7.5q-98 0-183-37t-148.5-108.5-99.5-178-36-240.5q0-131 29.5-238.5t89-185 146.5-119.5 202-42q47 0 109.5 7t109.5 17v1096zm8-1237q-113-18-245-18-145 0-260 48t-194 139-119 219-40 286q0 172 50.5 308t140.5 229.5 207.5 141.5 250.5 48q125 0 220-19h675v-127h-538v-479h514v-127h-514v-518h538v-131h-686z"/><glyph unicode="œ" horiz-adv-x="1798" d="M864 510q0 188-82 293.5t-225 105.5q-70 0-127-25.5t-98-76.5-62.5-126-21.5-173q0-188 81-292.5t224-104.5q68 0 124 23.5t98 72.5 65.5 125 23.5 178zm676 125q2 131-63.5 207t-182.5 76q-109 0-182.5-75t-91.5-208h520zm160-10q0-33-1-61.5t-3-41.5h-680q-8-213 76-313t254-100q150 0 299 55l22-121q-178-61-342-61-158 0-254 57t-143 164q-55-100-151.5-160.5t-237.5-60.5q-211 0-331 130t-120 386q0 113 32 211t93 171.5 152.5 114.5 207.5 41q127 0 223.5-53t149.5-158q53 98 143.5 154.5t213.5 56.5q102 0 177.5-31.5t125-89 72-131 22.5-159.5z"/><glyph unicode="Ŕ" horiz-adv-x="1155" d="M840 1001q0 127-85 195t-243 68q-82 0-168-7v-522q20 0 66.5-1t93.5-1q162 0 249 70.5t87 197.5zm61-1001l-446 614h-111v-614h-158v1380q45 2 142.5 5.5t199.5 3.5q106 0 193.5-21.5t151-67 97.5-115 34-163.5q0-90-30-159.5t-83-119-122-77-148-37.5q16-16 48.5-57.5t67.5-88.5l361-483h-197zm-442 1493l-33 90 353 152 49-125z"/><glyph unicode="ŕ" horiz-adv-x="724" d="M672 883q-170 29-251-94t-81-381v-408h-154v1018h152q0-51-6-121t-17-135l2-2q14 55 43 108.5t73 93 104.5 60 140.5 12.5zm-238 291l-78 73 248 283 100-94z"/><glyph unicode="Ŗ" horiz-adv-x="1155" d="M840 1001q0 127-85 195t-243 68q-82 0-168-7v-522q20 0 66.5-1t93.5-1q162 0 249 70.5t87 197.5zm61-1001l-446 614h-111v-614h-158v1380q45 2 142.5 5.5t199.5 3.5q106 0 193.5-21.5t151-67 97.5-115 34-163.5q0-90-30-159.5t-83-119-122-77-148-37.5q16-16 48.5-57.5t67.5-88.5l361-483h-197zm-469-432q53 45 72.5 83t19.5 66q0 18-4 28.5t-10.5 20-10.5 19.5-4 27q0 35 23.5 60.5t64.5 25.5q45 0 72-32t27-79q0-55-43-127t-158-149z"/><glyph unicode="ŗ" horiz-adv-x="724" d="M672 883q-170 29-251-94t-81-381v-408h-154v1018h152q0-51-6-121t-17-135l2-2q14 55 43 108.5t73 93 104.5 60 140.5 12.5zm-543-1315q53 45 72.5 83t19.5 66q0 18-4 28.5t-10.5 20-10.5 19.5-4 27q0 35 23.5 60.5t64.5 25.5q45 0 72-32t27-79q0-55-43-127t-158-149z"/><glyph unicode="Ř" horiz-adv-x="1155" d="M840 1001q0 127-85 195t-243 68q-82 0-168-7v-522q20 0 66.5-1t93.5-1q162 0 249 70.5t87 197.5zm61-1001l-446 614h-111v-614h-158v1380q45 2 142.5 5.5t199.5 3.5q106 0 193.5-21.5t151-67 97.5-115 34-163.5q0-90-30-159.5t-83-119-122-77-148-37.5q16-16 48.5-57.5t67.5-88.5l361-483h-197zm-372 1489l-318 168 47 92 273-127 274 127 45-90z"/><glyph unicode="ř" horiz-adv-x="724" d="M672 883q-170 29-251-94t-81-381v-408h-154v1018h152q0-51-6-121t-17-135l2-2q14 55 43 108.5t73 93 104.5 60 140.5 12.5zm-240 295l-271 260 70 78 203-177 205 177 67-74z"/><glyph unicode="Ś" horiz-adv-x="1032" d="M922 383q0-88-33-160.5t-96.5-127-156.5-84-212-29.5q-80 0-160 11t-145 30l22 149q66-25 142.5-39t150.5-14q72 0 131.5 14t102.5 44 66.5 77 23.5 113q0 78-43 129t-98.5 79.5-169 76.5-180 91-110.5 113-44 174q0 82 31.5 149.5t92 118 148.5 77 197 26.5q59 0 124.5-7.5t122.5-19.5l-18-141q-57 16-119.5 26.5t-122.5 10.5q-145 0-221-59.5t-76-166.5q0-76 44-126t97.5-76.5 169-75.5 183.5-93 112-115 44-175zm-457 1110l-33 90 353 152 49-125z"/><glyph unicode="ś" horiz-adv-x="876" d="M768 287q0-63-26.5-118.5t-79-97.5-130-65.5-174.5-23.5q-61 0-126.5 8t-116.5 20l14 142q51-18 118.5-30.5t127.5-12.5q113 0 174 44t61 121q0 57-33.5 91t-70.5 49.5-129 48.5-145.5 63.5-87 85-33.5 138.5q0 61 24.5 112t74.5 91 123 61.5 167 21.5q49 0 101-5t101-15l-14-131q-47 14-100 22t-105 8q-106 0-161.5-40.5t-55.5-112.5q0-55 34-90t71-50.5 130-48 145-63.5 87-85 35-138zm-365 887l-78 73 248 283 100-94z"/><glyph unicode="Ş" horiz-adv-x="1032" d="M922 383q0-88-33-160.5t-96.5-127-156.5-84-212-29.5q-80 0-160 11t-145 30l22 149q66-25 142.5-39t150.5-14q72 0 131.5 14t102.5 44 66.5 77 23.5 113q0 78-43 129t-98.5 79.5-169 76.5-180 91-110.5 113-44 174q0 82 31.5 149.5t92 118 148.5 77 197 26.5q59 0 124.5-7.5t122.5-19.5l-18-141q-57 16-119.5 26.5t-122.5 10.5q-145 0-221-59.5t-76-166.5q0-76 44-126t97.5-76.5 169-75.5 183.5-93 112-115 44-175zm-382-467q74-96 60-192.5t-107-204.5h-129q43 53 67.5 96t30 82-8 79-50.5 83z"/><glyph unicode="ş" horiz-adv-x="876" d="M768 287q0-63-26.5-118.5t-79-97.5-130-65.5-174.5-23.5q-61 0-126.5 8t-116.5 20l14 142q51-18 118.5-30.5t127.5-12.5q113 0 174 44t61 121q0 57-33.5 91t-70.5 49.5-129 48.5-145.5 63.5-87 85-33.5 138.5q0 61 24.5 112t74.5 91 123 61.5 167 21.5q49 0 101-5t101-15l-14-131q-47 14-100 22t-105 8q-106 0-161.5-40.5t-55.5-112.5q0-55 34-90t71-50.5 130-48 145-63.5 87-85 35-138zm-297-371q74-96 60-192.5t-107-204.5h-129q43 53 67.5 96t30 82-8 79-50.5 83z"/><glyph unicode="Š" horiz-adv-x="1032" d="M922 383q0-88-33-160.5t-96.5-127-156.5-84-212-29.5q-80 0-160 11t-145 30l22 149q66-25 142.5-39t150.5-14q72 0 131.5 14t102.5 44 66.5 77 23.5 113q0 78-43 129t-98.5 79.5-169 76.5-180 91-110.5 113-44 174q0 82 31.5 149.5t92 118 148.5 77 197 26.5q59 0 124.5-7.5t122.5-19.5l-18-141q-57 16-119.5 26.5t-122.5 10.5q-145 0-221-59.5t-76-166.5q0-76 44-126t97.5-76.5 169-75.5 183.5-93 112-115 44-175zm-406 1106l-318 168 47 92 273-127 274 127 45-90z"/><glyph unicode="š" horiz-adv-x="876" d="M768 287q0-63-26.5-118.5t-79-97.5-130-65.5-174.5-23.5q-61 0-126.5 8t-116.5 20l14 142q51-18 118.5-30.5t127.5-12.5q113 0 174 44t61 121q0 57-33.5 91t-70.5 49.5-129 48.5-145.5 63.5-87 85-33.5 138.5q0 61 24.5 112t74.5 91 123 61.5 167 21.5q49 0 101-5t101-15l-14-131q-47 14-100 22t-105 8q-106 0-161.5-40.5t-55.5-112.5q0-55 34-90t71-50.5 130-48 145-63.5 87-85 35-138zm-327 891l-271 260 70 78 203-177 205 177 67-74z"/><glyph unicode="Ţ" horiz-adv-x="1062" d="M608 1251v-1251h-155v1251h-414v131h985v-131h-416zm-19-1335q74-96 60-192.5t-107-204.5h-129q43 53 67.5 96t30 82-8 79-50.5 83z"/><glyph unicode="ţ" horiz-adv-x="757" d="M688 6q-43-10-95-16t-97-6q-76 0-126.5 17t-81 54-44 93.5-13.5 138.5v610h-217v121h217v338l154 43v-381h297v-121h-297v-567q0-63 7-104.5t23.5-65 45-33.5 74.5-10q76 0 141 16zm-189-90q74-96 60-192.5t-107-204.5h-129q43 53 67.5 96t30 82-8 79-50.5 83z"/><glyph unicode="Ť" horiz-adv-x="1062" d="M608 1251v-1251h-155v1251h-414v131h985v-131h-416zm-81 238l-318 168 47 92 273-127 274 127 45-90z"/><glyph unicode="ť" horiz-adv-x="763" d="M688 6q-43-10-95-16t-97-6q-76 0-126.5 17t-81 54-44 93.5-13.5 138.5v610h-217v121h217v338l154 43v-381h297v-121h-297v-567q0-63 7-104.5t23.5-65 45-33.5 74.5-10q76 0 141 16zm-72 1159l-104 33 117 350 131-39z"/><glyph unicode="Ū" horiz-adv-x="1427" d="M1241 524q0-266-138-404t-407-138q-154 0-255 38.5t-156.5 106.5-77 150.5-21.5 181.5v923h158v-909q0-80 16.5-144.5t56.5-113.5 111.5-76.5 180.5-27.5q195 0 286.5 92t91.5 309v870h154v-858zm-801 1014v111h551v-111h-551z"/><glyph unicode="ū" horiz-adv-x="1181" d="M844 0q0 51 4 115.5t12 111.5l-4 2q-43-113-136-180t-228-67q-88 0-146.5 25.5t-94.5 69.5-50.5 104.5-14.5 127.5v709h154v-658q0-121 40-186t150-65q68 0 125.5 31.5t99.5 88 64.5 134 22.5 167.5v488h153v-1018h-151zm-502 1276v117h502v-117h-502z"/><glyph unicode="Ů" horiz-adv-x="1427" d="M1241 524q0-266-138-404t-407-138q-154 0-255 38.5t-156.5 106.5-77 150.5-21.5 181.5v923h158v-909q0-80 16.5-144.5t56.5-113.5 111.5-76.5 180.5-27.5q195 0 286.5 92t91.5 309v870h154v-858zm-301 1116q0-92-62.5-154.5t-173.5-62.5q-100 0-158.5 51.5t-58.5 155.5q0 92 62.5 153.5t173.5 61.5q100 0 158.5-50.5t58.5-154.5zm-121-6q0 119-106 119-41 0-74-28.5t-33-88.5q0-119 107-119 41 0 73.5 29t32.5 88z"/><glyph unicode="ů" horiz-adv-x="1181" d="M844 0q0 51 4 115.5t12 111.5l-4 2q-43-113-136-180t-228-67q-88 0-146.5 25.5t-94.5 69.5-50.5 104.5-14.5 127.5v709h154v-658q0-121 40-186t150-65q68 0 125.5 31.5t99.5 88 64.5 134 22.5 167.5v488h153v-1018h-151zm-29 1350q0-92-61.5-156t-172.5-64q-100 0-157.5 52.5t-57.5 156.5q0 92 61.5 156t172.5 64q100 0 157.5-52.5t57.5-156.5zm-117-7q0 121-106 121-41 0-74-28.5t-33-89.5q0-121 105-121 41 0 74.5 28.5t33.5 89.5z"/><glyph unicode="Ű" horiz-adv-x="1427" d="M1241 524q0-266-138-404t-407-138q-154 0-255 38.5t-156.5 106.5-77 150.5-21.5 181.5v923h158v-909q0-80 16.5-144.5t56.5-113.5 111.5-76.5 180.5-27.5q195 0 286.5 92t91.5 309v870h154v-858zm-713 967l-78 74 222 250 98-93zm346 0l-76 74 259 245 94-94z"/><glyph unicode="ű" horiz-adv-x="1181" d="M844 0q0 51 4 115.5t12 111.5l-4 2q-43-113-136-180t-228-67q-88 0-146.5 25.5t-94.5 69.5-50.5 104.5-14.5 127.5v709h154v-658q0-121 40-186t150-65q68 0 125.5 31.5t99.5 88 64.5 134 22.5 167.5v488h153v-1018h-151zm-408 1178l-78 69 232 275 100-86zm342 0l-78 69 252 264 99-88z"/><glyph unicode="Ų" horiz-adv-x="1427" d="M1241 524q0-268-137-405-51-49-123-90t-137-107q-96-96-96-192 0-86 83-86 35 0 68 13t70 40l51-88q-96-86-217-86-98 0-151.5 48t-53.5 130q0 74 41 148.5t123 136.5q-16-2-35.5-3t-36.5-1q-158 0-256 40.5t-153.5 108.5-75 153-19.5 175v923h158v-909q0-74 15.5-140.5t55.5-115.5 110.5-77.5 183.5-28.5q190 0 284 90t94 311v870h154v-858z"/><glyph unicode="ų" horiz-adv-x="1181" d="M1108-391q-49-43-103.5-64.5t-113.5-21.5q-98 0-152.5 48t-54.5 130q0 39 11.5 78t35 79 59 78.5 84.5 75.5q-8 57-11 111.5t-1 93.5h-2q-51-109-145-172t-223-63q-84 0-143.5 24.5t-95.5 68.5-51.5 103.5-15.5 130.5v709h154v-658q0-127 42-189t148-62q68 0 125.5 31.5t99.5 89 64.5 134 22.5 166.5v488h153v-647q0-96 8.5-193.5t22.5-177.5q-104-76-148-142.5t-44-127.5q0-86 86-86 63 0 135 53z"/><glyph unicode="Ÿ" horiz-adv-x="1079" d="M616 541v-541h-155v541l-453 841h174l252-475q31-61 56.5-114.5t52.5-114.5h2q27 59 54.5 118.5t57.5 114.5l248 471h166zm-196 1054q-2-43-26.5-68.5t-69.5-27.5q-43 2-69 28.5t-28 67.5q2 41 29 68t68 29q43-2 68.5-29t27.5-68zm436 0q-2-45-30.5-70.5t-67.5-25.5q-45 2-68.5 28.5t-25.5 67.5q2 41 28.5 69t65.5 28q41-2 68.5-27t29.5-70z"/><glyph unicode="Ź" horiz-adv-x="1105" d="M94 0v115l613 952q29 43 62.5 92t59.5 88q-66-2-144.5-3t-178.5-1h-389v139h891v-116l-646-996q-16-27-47.5-72.5t-40.5-60.5q31 4 112 5t251 1h377v-143h-920zm422 1493l-33 90 353 152 49-125z"/><glyph unicode="ź" horiz-adv-x="913" d="M100 0v109l518 776q-55-2-131.5-3t-156.5-1h-219v137h684v-107l-514-774q47 2 136 3t158 1h230v-141h-705zm361 1174l-78 73 248 283 100-94z"/><glyph unicode="Ż" horiz-adv-x="1105" d="M94 0v115l613 952q29 43 62.5 92t59.5 88q-66-2-144.5-3t-178.5-1h-389v139h891v-116l-646-996q-16-27-47.5-72.5t-40.5-60.5q31 4 112 5t251 1h377v-143h-920zm561 1602q0-43-30.5-74t-71.5-31q-43 0-74 29.5t-31 75.5q0 43 31 73.5t74 30.5 72.5-29.5 29.5-74.5z"/><glyph unicode="ż" horiz-adv-x="913" d="M100 0v109l518 776q-55-2-131.5-3t-156.5-1h-219v137h684v-107l-514-774q47 2 136 3t158 1h230v-141h-705zm451 1343q0-43-30.5-72.5t-71.5-29.5q-43 0-74 29.5t-31 72.5 31 74 74 31 72.5-30 29.5-75z"/><glyph unicode="Ž" horiz-adv-x="1105" d="M94 0v115l613 952q29 43 62.5 92t59.5 88q-66-2-144.5-3t-178.5-1h-389v139h891v-116l-646-996q-16-27-47.5-72.5t-40.5-60.5q31 4 112 5t251 1h377v-143h-920zm465 1489l-318 168 47 92 273-127 274 127 45-90z"/><glyph unicode="ž" horiz-adv-x="913" d="M100 0v109l518 776q-55-2-131.5-3t-156.5-1h-219v137h684v-107l-514-774q47 2 136 3t158 1h230v-141h-705zm355 1178l-271 260 70 78 203-177 205 177 67-74z"/><glyph unicode="ƒ" horiz-adv-x="894" d="M385 188q-14-137-42-235t-75-159.5-116.5-90.5-169.5-29q-35 0-74 4.5t-74 14.5l27 135q31-10 70.5-18.5t78.5-8.5q53 0 89 15.5t60.5 54.5 40 106.5 27.5 169.5l58 564h-254v120h266l31 283q20 182 112 289.5t271 107.5q31 0 70.5-3t74.5-9l-20-129q-72 16-150 16-92 0-140-60t-63-193l-30-302h344v-120h-357z"/><glyph unicode="Ș" horiz-adv-x="1032" d="M922 383q0-88-33-160.5t-96.5-127-156.5-84-212-29.5q-80 0-160 11t-145 30l22 149q66-25 142.5-39t150.5-14q72 0 131.5 14t102.5 44 66.5 77 23.5 113q0 78-43 129t-98.5 79.5-169 76.5-180 91-110.5 113-44 174q0 82 31.5 149.5t92 118 148.5 77 197 26.5q59 0 124.5-7.5t122.5-19.5l-18-141q-57 16-119.5 26.5t-122.5 10.5q-145 0-221-59.5t-76-166.5q0-76 44-126t97.5-76.5 169-75.5 183.5-93 112-115 44-175zm-572-815q53 45 72.5 83t19.5 66q0 18-4 28.5t-10.5 20-10.5 19.5-4 27q0 35 23.5 60.5t64.5 25.5q45 0 72-32t27-79q0-55-43-127t-158-149z"/><glyph unicode="ș" horiz-adv-x="876" d="M768 287q0-63-26.5-118.5t-79-97.5-130-65.5-174.5-23.5q-61 0-126.5 8t-116.5 20l14 142q51-18 118.5-30.5t127.5-12.5q113 0 174 44t61 121q0 57-33.5 91t-70.5 49.5-129 48.5-145.5 63.5-87 85-33.5 138.5q0 61 24.5 112t74.5 91 123 61.5 167 21.5q49 0 101-5t101-15l-14-131q-47 14-100 22t-105 8q-106 0-161.5-40.5t-55.5-112.5q0-55 34-90t71-50.5 130-48 145-63.5 87-85 35-138zm-483-719q53 45 72.5 83t19.5 66q0 18-4 28.5t-10.5 20-10.5 19.5-4 27q0 35 23.5 60.5t64.5 25.5q45 0 72-32t27-79q0-55-43-127t-158-149z"/><glyph unicode="Ț" horiz-adv-x="1062" d="M608 1251v-1251h-155v1251h-414v131h985v-131h-416zm-225-1683q53 45 72.5 83t19.5 66q0 18-4 28.5t-10.5 20-10.5 19.5-4 27q0 35 23.5 60.5t64.5 25.5q45 0 72-32t27-79q0-55-43-127t-158-149z"/><glyph unicode="ț" horiz-adv-x="757" d="M688 6q-43-10-95-16t-97-6q-76 0-126.5 17t-81 54-44 93.5-13.5 138.5v610h-217v121h217v338l154 43v-381h297v-121h-297v-567q0-63 7-104.5t23.5-65 45-33.5 74.5-10q76 0 141 16zm-399-438q53 45 72.5 83t19.5 66q0 18-4 28.5t-10.5 20-10.5 19.5-4 27q0 35 23.5 60.5t64.5 25.5q45 0 72-32t27-79q0-55-43-127t-158-149z"/><glyph unicode="ʼ" horiz-adv-x="153" d="M203 1518q47 0 76.5-38t26.5-104.5-49-153.5-151-186l-63 58q92 100 104.5 168.5t-16.5 107.5q-18 23-20 49.5t9 48 32.5 36 50.5 14.5z"/><glyph unicode="ˆ" horiz-adv-x="913" d="M657 1178l-200 176-205-176-68 71 275 267 272-263z"/><glyph unicode="ˇ" horiz-adv-x="913" d="M455 1178l-271 260 70 78 203-177 205 177 67-74z"/><glyph unicode="˘" horiz-adv-x="860" d="M676 1468q0-53-15.5-99t-45-83-78-57.5-109.5-20.5q-63 0-109.5 20.5t-76 57.5-44 83-14.5 99h107q0-61 37-102t102-41q63 0 100 38t37 105h109z"/><glyph unicode="˙" horiz-adv-x="575" d="M391 1343q0-43-30.5-72.5t-71.5-29.5q-43 0-74 29.5t-31 72.5 31 74 74 31 72.5-30 29.5-75z"/><glyph unicode="˚" horiz-adv-x="817" d="M633 1350q0-92-61.5-156t-172.5-64q-100 0-157.5 52.5t-57.5 156.5q0 92 61.5 156t172.5 64q100 0 157.5-52.5t57.5-156.5zm-117-7q0 121-106 121-41 0-74-28.5t-33-89.5q0-121 105-121 41 0 74.5 28.5t33.5 89.5z"/><glyph unicode="˛" horiz-adv-x="790" d="M526 0q-113-80-152.5-146.5t-39.5-123.5q0-86 84-86 35 0 67.5 13t69.5 40l51-88q-96-86-215-86-100 0-153.5 48t-53.5 130q0 78 45 157t144 154z"/><glyph unicode="˜" horiz-adv-x="1050" d="M866 1376q-39-70-93-108.5t-120-38.5q-49 0-85 17.5t-64.5 40-55 39.5-59.5 17q-70-2-125-98l-80 64q39 72 93.5 110.5t121.5 38.5q49 0 84-18.5t63.5-40 55.5-39 60-17.5q72 0 126 97l78-64z"/><glyph unicode="˝" horiz-adv-x="1058" d="M262 1178l-78 69 232 275 100-86zm342 0l-78 69 252 264 99-88z"/><glyph unicode="̒" horiz-adv-x="0" d="M-592 1161q-39 0-67.5 31t-28.5 82q0 61 47 134t154 142l47-59q-49-41-70.5-78t-21.5-70q0-16 4-26t11-22.5 10-22.5 3-25q0-37-25.5-61.5t-62.5-24.5z"/><glyph unicode="̕" horiz-adv-x="45" d="M12 1165l-104 33 117 350 131-39z"/><glyph unicode="̦" horiz-adv-x="0" d="M-737-432q53 45 72.5 83t19.5 66q0 18-4 28.5t-10.5 20-10.5 19.5-4 27q0 35 23.5 60.5t64.5 25.5q45 0 72-32t27-79q0-55-43-127t-158-149z"/><glyph unicode="Δ" horiz-adv-x="1239" d="M649 1112q-23 72-35 131h-4q-8-31-17-65.5t-22-71.5l-344-969h768zm-590-1112v113l465 1269h189l467-1269v-113h-1121z"/><glyph unicode="Ω" horiz-adv-x="1478" d="M903 0v131q68 53 122 110.5t92 126 59.5 150.5 21.5 184q0 121-28.5 224.5t-86 178.5-143.5 118-201 43q-96 0-179-38t-145.5-109.5-98-174-35.5-231.5q0-98 16-178t51-149 91.5-131 135.5-124v-131h-481v133h305q-129 92-207.5 234.5t-78.5 334.5q0 166 50 296t138 219.5 205 136.5 252 47q129 0 240.5-42t192.5-127 128-212 47-297q0-102-24.5-190.5t-65.5-162-94.5-133-112.5-104.5h317v-133h-483z"/><glyph unicode="μ" horiz-adv-x="1204" d="M1122-10q-20-2-36.5-3t-30.5-1q-111 0-156 61.5t-35 177.5l-2 2q-43-111-132-177t-218-66q-63 0-111.5 19.5t-74.5 59.5l18-573h-158v1528h154v-676q0-119 46-176t144-57q70 0 127.5 31.5t98.5 88 63.5 134 22.5 169.5v486h153v-672q0-74 6.5-119t20.5-70.5 38.5-33.5 61.5-8v-125z"/><glyph unicode="π" horiz-adv-x="1298" d="M961 891q0-213 11-356.5t27-235.5q20-106 47-145t72-39q23 0 47.5 4t46.5 10l19-127q-25-8-61.5-12t-73.5-4q-106 0-164 62.5t-86 219.5q-39 201-39 623h-369q4-223-26.5-448.5t-102.5-450.5l-174 16q80 225 120 442.5t36 440.5h-264v127h1200v-127h-266z"/><glyph unicode="–" d="M0 543v135h1126v-135h-1126z"/><glyph unicode="—" horiz-adv-x="2048" d="M248 543v135h1552v-135h-1552z"/><glyph unicode="―" horiz-adv-x="2048" d="M248 543v135h1552v-135h-1552z"/><glyph unicode="‘" horiz-adv-x="479" d="M393 1470q-47-51-72.5-95t-35-79.5-4-63.5 21.5-48q18-25 20.5-52.5t-9-51-34-39-53.5-15.5q-49 0-80.5 40t-28.5 109.5 51 160.5 157 194l67-60z"/><glyph unicode="’" horiz-adv-x="479" d="M250 1518q51 0 81.5-41t27.5-113-54-163-153-187l-68 59q45 51 71.5 94t35 79 4 64.5-20.5 49.5q-18 25-21 52.5t9 51 34.5 39 53.5 15.5z"/><glyph unicode="‚" horiz-adv-x="479" d="M250 203q51 0 81.5-41t27.5-113-54-163-153-187l-68 59q45 51 71.5 94.5t35 79 4 64.5-20.5 49q-18 25-21 52.5t9 51 34.5 39 53.5 15.5z"/><glyph unicode="“" horiz-adv-x="845" d="M393 1470q-45-49-71.5-93t-36-79.5-4-64.5 21.5-49q18-25 20.5-52.5t-9-51-34-39-53.5-15.5q-51 0-81.5 41t-27.5 112.5 54 163 154 187.5zm365 0q-45-49-72-93t-35-79.5-3-64.5 22-49q18-25 20-52.5t-9-51-33.5-39-53.5-15.5q-51 0-83 41t-29 112.5 54.5 163 153.5 187.5z"/><glyph unicode="”" horiz-adv-x="845" d="M250 1518q51 0 81.5-41t27.5-113-54-163-153-187l-68 59q45 51 71.5 94t35 79 4 64.5-20.5 49.5q-18 25-21 52.5t9 51 34.5 39 53.5 15.5zm364 0q51 0 83-41t28-113-54-163-155-187l-67 59q90 96 107 169t-17 118q-18 25-20.5 52.5t9 51 33.5 39 53 15.5z"/><glyph unicode="„" horiz-adv-x="845" d="M250 203q51 0 81.5-41t27.5-113-54-163-153-187l-68 59q45 51 71.5 94.5t35 79 4 64.5-20.5 49q-18 25-21 52.5t9 51 34.5 39 53.5 15.5zm364 0q51 0 83-41t28-113-54-163-155-187l-67 59q90 96 107 169t-17 118q-18 25-20.5 52.5t9 51 33.5 39 53 15.5z"/><glyph unicode="†" horiz-adv-x="911" d="M516 1159l31-207-35-510h-113l-34 510 30 207h-291v121h291l-30 281h182l-31-281h291v-121h-291z"/><glyph unicode="‡" horiz-adv-x="911" d="M516 612l31-272h-182l30 272h-291v121h291l-30 217 30 219h-291v119h291l-30 273h182l-31-273h291v-119h-291l31-219-31-217h291v-121h-291z"/><glyph unicode="•" horiz-adv-x="858" d="M655 608q0-47-18.5-88t-49-71.5-71.5-48-86-17.5q-47 0-88 17.5t-71.5 48-48 71.5-17.5 88 17.5 88 48 72 71.5 48.5 88 17.5q45 0 86-17.5t71.5-48.5 49-72 18.5-88z"/><glyph unicode="…" horiz-adv-x="1314" d="M330 92q0-45-33-76.5t-78-31.5-76.5 31.5-31.5 76.5 31.5 77 76.5 32q47 0 79-32t32-77zm424 0q0-45-32-76.5t-77-31.5-76.5 31.5-31.5 76.5 31.5 77 76.5 32q47 0 78-31t31-78zm426 0q0-45-32-76.5t-77-31.5-77.5 31.5-32.5 76.5 31.5 77 78.5 32q45 0 77-32t32-77z"/><glyph unicode="‰" horiz-adv-x="2078" d="M649 1106q0-78-22.5-138.5t-61.5-101.5-90-62.5-108-21.5q-119 0-192 69t-73 226q0 76 22.5 136.5t61.5 101.5 90.5 62.5 108.5 21.5 105.5-16.5 84-51.5 55-90 19.5-135zm-127-14q0 100-32.5 150t-110.5 50q-70 0-109-55t-39-147q0-100 33-150.5t111-50.5q70 0 108.5 55.5t38.5 147.5zm-311-1123l-96 74 1085 1370 98-76zm1100 338q0-78-22.5-138t-61.5-102-90.5-63.5-108.5-21.5q-119 0-191.5 68.5t-72.5 225.5q0 76 22.5 136.5t61.5 101.5 90 62.5 109 21.5q57 0 105-15.5t84-50 55.5-90 19.5-135.5zm-127-14q0 98-33 148.5t-111 50.5q-70 0-108.5-54.5t-38.5-146.5q0-102 32.5-152.5t110.5-50.5q70 0 109 55.5t39 149.5zm772 14q0-78-22.5-138t-60.5-102-90-63.5-110-21.5q-117 0-190.5 68.5t-73.5 225.5q0 76 22.5 136.5t61.5 101.5 91 62.5 110 21.5q57 0 105-15.5t83-50 54.5-90 19.5-135.5zm-127-14q0 98-33 148.5t-110 50.5q-70 0-109-54.5t-39-146.5q0-102 33-152.5t110-50.5q70 0 109 55.5t39 149.5z"/><glyph unicode="‹" horiz-adv-x="641" d="M367 248l-246 352 248 361 110-66-205-293 205-287z"/><glyph unicode="›" horiz-adv-x="641" d="M272 248l-110 65 205 291-203 289 115 68 243-355z"/><glyph unicode="⁄" horiz-adv-x="430" d="M-358-281l-105 72 1301 1851 102-71z"/><glyph unicode="⁴" horiz-adv-x="778" d="M588 944v-192h-137v192h-398l-10 96 344 555h201v-534h139v-117h-139zm-137 547l-269-434q27 2 64 3t75.5 1h129.5v430z"/><glyph unicode="ⁿ" horiz-adv-x="868" d="M588 752v436q0 72-24.5 110.5t-94.5 38.5q-84 0-137-71.5t-53-188.5v-325h-138v678h133q0-29-2-69t-8-69q41 84 106.5 119t143.5 35q59 0 100-17.5t66-47 36-69.5 11-85v-475h-139z"/><glyph unicode="€" horiz-adv-x="1212" d="M1155 94q-88-53-181-82.5t-222-29.5q-231 0-367.5 127t-167.5 370h-190v107h182v73q0 33 1 64t3 59h-186v107h196q23 135 75 232.5t127 159.5 169 91 201 29q96 0 188-24.5t154-59.5l-52-121q-53 33-133 56.5t-176 23.5q-70 0-133-21.5t-114.5-68.5-88.5-121-51-176h479v-107h-489q-2-23-3-47t-1-51v-51q0-25 2-47h491v-107h-481q23-178 123-273t274-95q84 0 167 26.5t155 73.5l49-117z"/><glyph unicode="™" horiz-adv-x="1437" d="M383 1286v-479h-123v479h-158v96h435v-96h-154zm815-479l-47 323-16 115-25-98-104-340h-127l-101 344-24 94-6-76-54-362h-112l88 575h157l101-340 22-98 19 88 108 350h156l88-575h-123z"/><glyph unicode="∂" horiz-adv-x="1306" d="M924 487q0 117-74 196t-215 79q-70 0-128-26.5t-100-73-66-108.5-24-134q0-154 77-229.5t200-75.5q70 0 130 28.5t105 78.5 70 118.5 25 146.5zm225 357q0-86-9.5-175t-32-176-56-166-82.5-145q-66-88-168.5-143t-227.5-55q-203 0-306 113.5t-103 308.5q0 104 34.5 192t99 153.5 153 102.5 196.5 37q129 0 216-59.5t124-157.5q2 53 2 98v88q-4 131-41 229.5t-99.5 163-145 96-181.5 29.5l15 127q139-2 252.5-48t193.5-130 123-205.5 43-277.5z"/><glyph unicode="∏" horiz-adv-x="1605" d="M1286 1362v-1872h-149v1872h-668v-1872h-150v1872h-223v133h1413v-133h-223z"/><glyph unicode="∑" horiz-adv-x="1249" d="M74-510v119l647 901-608 866v119h987v-133h-793l596-846-643-887h868v-139h-1054z"/><glyph unicode="−" d="M88 543v133h950v-133h-950z"/><glyph unicode="√" horiz-adv-x="1239" d="M684 0h-176l-315 899h-191v119h313l207-617q20-61 40-122.5t36-122.5h4q16 59 29.5 115.5t30.5 111.5l337 1169h166z"/><glyph unicode="∞" horiz-adv-x="1988" d="M874 608q-109 80-205 139.5t-186 59.5q-98 0-148-57.5t-50-135.5q0-86 52-142t155-56q86 0 181 57t201 135zm832 2q0 86-53.5 141.5t-155.5 55.5q-84 0-180-57.5t-201-135.5q109-80 204-139t187-59q96 0 147.5 58t51.5 136zm156 11q0-68-25-129.5t-71-107.5-113.5-73.5-153.5-27.5q-129 0-255 69.5t-255 167.5q-59-45-121.5-87t-127-75.5-130-54-131.5-20.5q-90 0-155.5 25.5t-109.5 69.5-65.5 102.5-21.5 123.5q0 70 25.5 131.5t71.5 107.5 112.5 72.5 150.5 26.5q66 0 130.5-19.5t129-52 128-75.5 126.5-93q59 45 122 88.5t126.5 77 129 54 130.5 20.5q88 0 154-25.5t110-69.5 66.5-102 22.5-124z"/><glyph unicode="∫" horiz-adv-x="688" d="M649 1860q-25 6-52.5 11t-53.5 5q-45 0-74-14.5t-47.5-53.5-27.5-109.5-9-185.5q0-76 2-192.5t4-226 7-331.5 7.5-368.5 4.5-284 2-241.5q0-145-18.5-244.5t-56.5-162-95.5-90-135.5-27.5q-27 0-54 3t-50 9v137q23-6 50.5-11t51.5-5q45 0 74 14t47.5 51 27.5 105.5 9 179.5q0 72-2 186.5t-3 215-6 335-7 384-4 288.5-2 244q0 145 19 246.5t57 163 95.5 89 135.5 27.5q55 0 104-12v-135z"/><glyph unicode="≈" d="M1026 412q-45-35-110.5-68t-145.5-33q-76 0-127 19.5t-95 42-89 42-109 19.5q-66 0-116-29.5t-82-56.5l-52 109q43 39 106.5 74.5t147.5 35.5q72 0 123-19.5t97.5-44 94.5-44 109-19.5q53 0 101.5 20.5t95.5 61.5l51-110zm0 350q-45-45-108.5-79t-147.5-34q-74 0-125 19.5t-94 42-89 42-112 19.5-116-28.5-82-57.5l-52 111q45 41 110.5 74.5t147.5 33.5q70 0 123.5-19.5t99.5-44 92-44 105-19.5q53 0 100.5 25.5t94.5 66.5l53-108z"/><glyph unicode="≠" d="M537 379l-121-299h-135l120 299h-284v127h336l79 205h-415v129h467l123 305h137l-123-305h289v-129h-340l-82-205h422v-127h-473z"/><glyph unicode="≤" d="M137 0v129h852v-129h-852zm744 246l-762 499 760 502 86-106-621-393 621-388z"/><glyph unicode="≥" d="M137 0v129h852v-129h-852zm111 246l-86 108 620 391-620 388 84 114 762-499z"/><glyph unicode="◊" horiz-adv-x="1261" d="M621 1231l-373-529 395-548 375 522zm65-1247h-96l-512 714 502 701h92l512-713z"/><glyph unicode="" horiz-adv-x="1013" d="M0 1014h1014v-1014h-1014v1014z"/><glyph unicode="" horiz-adv-x="358" d="M358 2007v-2662h-358v2662h358z"/><glyph unicode="" horiz-adv-x="1966" d="M596 117q-2-16-17.5-41t-31.5-37q-8-2-17.5-8t-19.5 0q-12 4-5 15t11 22q0 4 3 20t12.5 36.5 22.5 42 32 34.5q18 2 22 2 6 0 13 4 4-6-.5-18.5t-9.5-27-10-27.5-5-17zm281 41q8-29-5.5-59.5t-35.5-53.5q-6-8-13.5-9t-15.5-5q-25 4-24 26.5t1 40.5q8 16 12.5 34t14.5 32q16 8 26.5 22.5t26.5 14.5l4-6q-8-14-.5-20.5t9.5-16.5zm-332 213q-25 4-52.5 3t-54.5-3q-16-2-31.5-5.5t-27.5-11.5q-10-33-20.5-66.5t-18.5-66.5q-6-53-19.5-111.5t-21.5-113.5q8 0 16.5 3t12.5-1q14 4 24-1t23 1q10 33 15 64.5t16 64.5q6 10 16 15t20.5 9.5 17.5 0 15 6.5l8 57q-6 10-18 9t-25-1q-8-8-14-8-16 4-11 19.5t1 25.5q-2 6 3 11t9 10q23 6 43.5 9t40.5 7l12 8q2 18 9.5 34t11.5 32zm114-301q-2 23 4.5 48t12.5 50 10 49.5-4 42.5q-10 8-24.5 13.5t-18.5-5.5l-4-12q-16-4-38 4t-40-4q-16-8-21.5-16.5t-9.5-24.5q2-6-3-9t-12-6-12-9.5-3-18.5q-4-8-1-13t-6-14q-4-10-11-26.5t-13-20.5q-20-12-17-40.5t11-45.5q-4-14 5-22t19-13q4 4 8.5 6.5t8.5-1.5q16-4 38.5 15t39.5 30q12 2 12-2t-3-10.5-5-14.5 2-12q10-4 13-7.5t13-3.5q8 4 16.5 5.5t16.5 7.5l16 80zm256-9q25 35 27 72t0 78q4 6-2 12t-14 10.5-16.5 9.5-10.5 7q-4 4-10 4-4 0-6-6-23 2-41-8-12-6-18.5-16.5t-16.5-14.5q-4-4-9-1t-7 7q14 37 17 75t5 77l-2 14h-16q-18-6-19.5-22.5t-7.5-28.5q-12-35-17.5-70t-17.5-70q-4-35-13-67.5t-11-63.5q-4-18-10.5-35.5t-8.5-37.5q12-8 30.5-2t33.5 12q10 4 16 2t11-8 8.5-12.5 9.5-10.5q16 0 26 2 25 12 55.5 39.5t34.5 52.5zm246 191q-16-2-34.5-5t-32.5-22q-10-8-15.5-23.5t-21.5-11.5q-4 16-1 29.5t7 30.5q-8 4-15.5 0t-15.5 0q-18-8-28-27-10-59-20.5-113.5t-14.5-113.5l6-8q10-8 23.5-3t23.5 1q-4 23 5 42t5 42q10 23 20.5 46t30.5 44q12 10 26.5 13t31.5 13q4 16 12 33t8 33zm58-221q8 41 14 80t12 75q10 31 10 54-12 10-26.5 4t-30.5-4q-18-23-20-49.5t-9-53.5q-8-10-11-24.5t-7-28.5q4-20-5-45t1-45q29 0 63 10 9 11 9 27zm61 336q-2 10-6 18t-14 12q-4 4-10.5 5t-10.5-5q-10-12-17.5-30.5t-.5-30.5q2-10 14-11t22 3q23 12 23 39zm195-387q-4 16-9.5 33.5t-15.5 31.5q-10 23-20.5 42t-8.5 46q-2 10-6 17.5t0 17.5q18 16 41 26.5t39 26.5l-14 35q-18-2-33.5-9t-32.5-11q-10-4-21.5-12.5t-19.5 1.5q10 41 18.5 81t14.5 79l-4 6q-16 0-27.5 5t-25.5 10q-6-23-13.5-48.5t-11.5-50.5q-8-16-8-41 0-23-10-39-10-63-23.5-106t-19.5-105l-4-14h49q6 2 12-2t12 2q4 14 5 27.5t5.5 30 0 34 18.5 23.5q12-4 10-13.5t2-17.5q-2-14 5-24.5t7-22.5q18-12 25.5-32.5t24.5-35.5q6 2 10-3t14-1q15 1 15 13zm-598 1124q-4 23-12.5 44t-33.5 26q-4-10-13-7.5t-17 .5q-27 12-56-12-25-31-13.5-59.5t26.5-55.5q2-8 9-6t15 0q12-4 25.5 3t26.5 12q14 12 30.5 22t12.5 33zm694-1231q-45 4-100.5-5t-98.5-3q-115 4-223.5-8.5t-220.5.5q-51-8-99.5-3t-97.5 9q-59 4-121.5 3t-126.5-1q-43 0-102-3t-102-14q-8-2-19-2-8 0-12 11 0 33-2 66.5t8 66.5q4 41 2 82t4 82q-8 47-1 91t-1 91q0 66 5 132.5t9 135.5q4 74 1 146.5t1 146.5q8 16 23.5 13t30.5 1q16-10 37.5-5t37.5 3q6 6 15.5 11.5t11.5-9.5q4-4 1-12t5-12q-4-29-3-78t4-106.5 7.5-118 6.5-109.5q66 20 120 56t117 59q10 4 19.5 12t23.5 12q4 2 8 6.5t13 .5q10-4 8-14.5t-2-20.5q-20-59-10-125 4-10 13-6t15 4q16 14 34.5 23.5t35.5 21.5q20 12 40.5 23.5t43.5 19.5q25 16 48 32.5t50 26.5l41 33q2 8 12 14 6 0 11.5-4t11.5-8q0-29 6-58.5t6-58.5q2-6 6-5t6-3q8-10 4-20.5t-8-20.5l4-4q35 8 65 26.5t59.5 39 59 39 64.5 26.5q10 10 22.5 13t22.5 14q10 2 18.5 9t17.5 13 19.5 9.5 22.5-7.5q4 0 8-2t6-6q-2-8 1.5-13t7.5-11q-4-16 0-29.5t-4-26.5q2-27 0-51.5t10-46.5q-4-14 5-25.5t-1-21.5q2-16 0-29.5t8-25.5q2-10 3-19.5t-5-17.5q4-23 5-47.5t9-47.5q-4-8-2-16t2-16q0-78 11.5-151t13.5-150q0-4 3-9.5t-1-9.5zm-610 1487q-27-27-62-17-8 12-15 23.5t-7 26.5q-20 41-64.5 51t-87.5 22l-63 4q-4-4-12.5-2t-14.5-2q-37-10-63.5-20t-53.5-23q-14-16-35.5-27.5t-27.5-33.5q-16-31-24.5-70t-14.5-73q10-8 22.5-5t22.5 0q45 4 86 5h90q10-4 0-15-18-12-31.5-1t-30.5 5q-20 2-42.5-1t-43.5-1q-18-4-38-4t-37-10l-6-8q-8-39-10.5-63.5t-2.5-65.5q2-14-3-28.5t5-29.5q27-2 42.5-1t28.5 2 28.5 3.5 42.5 2.5q8 4 14 2t12-5q2-2 1-4t1-4l-10-4q-23 4-41 3t-37.5-3-42-4-53.5 0q-23-2-47.5-4t-48.5 0q-31-2-66-2t-63 8l-2 6q6 6 18 11 16-8 36.5-9.5t41.5-5.5q16 2 29.5 1t25.5 7q4 53 18.5 94.5t24.5 96.5l-4 8q-31 2-59.5 0t-55.5 10q0 10 9 11 27-8 55-9 31 0 59 2l4 7q10 35 20.5 70.5t27.5 64.5l2 6q51 53 115.5 86t142.5 41q35 4 71.5-4t65.5-23q10-4 20-4 12 0 23-4 35-8 66.5-24.5t52.5-47.5q2-4 0-9t-4-9zm-35-215q2-37-21-64-25-14-45-31.5t-49-21.5q-6 2-8-1t-5-6-6.5-5-9.5 2q-10 8-24.5 4t-26.5-2q-12 0-21.5 1t-19.5 5q-14 14-27.5 31.5t1.5 42.5q16 41 55 61 23 10 47.5 21.5t50.5 5.5q33-2 65-8t44-35zm397-117q-25 0-52.5-1t-53.5-9q-6 4-12.5 5t-10.5 11q8 29 13 57.5t1 57.5q-4 6-13 1t-15-9q-31-16-60.5-40t-36.5-59q-8-8-19-11t-20 1q-10 14-2.5 30.5t2.5 33.5l7 63q-6 6-16.5 3t-20.5 1q-4 4-13.5 2t-7.5 9q27-2 52.5 2t54.5 0q6-6 5-14.5t-3-16.5 0-14.5 10-10.5q29 12 55.5 29.5t55.5 28.5q6-4 14-3t14 1q8 0 13.5-3.5t7.5-13.5q2-23-1-44t-5-44q2-6 1-13t3-11q18-4 26 0 8 0 16.5-2.5t18.5-2.5q6-4 0-10zm494 141q-4-8-7-8-23 4-44 1t-44-5q-70-4-108.5-6t-75.5-8q-16-14-17-32.5t-12-35.5q-2-10 1-16t3-15q4-6 12.5-9t14.5-5q16 2 29.5 8t21.5 19q0 14-10 24-10 8-21.5 6t-19.5 9q8 10 21.5 8t25.5-2q16-6 27-33-8-31-43-55-10-4-21.5-5t-23.5-5q-23 6-48.5 16t-37.5 33q-6 25 3 46t13 44q-4 10-12 8t-17 0l-69-2q0 4-2 4t-2 4q8 4 16 4t14 2q18-4 39-2t39 2q10 6 11.5 15.5t3.5 19.5q8 14 10 32.5t16 29.5q10 6 15.5-2.5t9.5-12.5q10-16 4-35.5t0-38.5q4-12 18.5-8t24.5 0q47 4 100.5 3t132.5 10q7-5 9-7z"/><glyph unicode="" horiz-adv-x="1204" d="M864 0v897h-475v-897h-153v897h-222v121h222v47q0 211 112.5 326.5t337.5 115.5q78 0 153.5-10t139.5-29l-33-129q-61 18-132 29.5t-140 11.5q-143 0-214-75.5t-71-217.5v-69h629v-1018h-154z"/><glyph unicode="" horiz-adv-x="1204" d="M864 0v1366q-25 4-83 10t-122 6q-139 0-204.5-65.5t-65.5-216.5v-82h279v-121h-279v-897h-153v897h-222v121h222v74q0 209 109.5 311t336.5 102q98 0 194.5-10t141.5-16v-1479h-154z"/><glyph unicode="" horiz-adv-x="2129" d="M293 731v-74l-242-14q-4 53 0 102zm794-4q4 0 5 10 0 10-5 11 6-11 0-21zm-6 4q10 0 5 4t-1 4v2q-10 0-4-4t0-4v-2zm-6 4q-4-4-4-2 0 4 4 2zm0-4h2v6q0 10-8 2 4 0 6-2-4 0-6-4t6 0v-2zm-6-4q-6 10 0 21-4 0-4-11 0-10 4-10zm-8 6q-4-2-4 2 0 6 4 4v2q-4 2-5-5t5-5v2zm-10 8v-6q0-4-1-3t-1 3v6h-2v-6q0-4 2-4 4 0 4 4v6h-2zm-7-8h-4v12h-2v-14h6v2zm254-733l-499-127 53-131h430l29 72-15 30-155-41-23 62 215 53zm-2 168l-499-129 37-86 499 125zm-489 151v-116l33-82 485 123v75h-518zm352 373q-29 4-49 5t-43 1-45.5-1-50.5-5l28-301h131l29 301zm-221-301l-33 289q-27-6-43-13.5t-30.5-11.5-21.5 7.5-9 27 2 30.5 12 17q57 16 121.5 27.5t130.5 11.5 130.5-11 123.5-28q6-2 9-16t2-30.5-8-28-21-7.5q-14 8-34 13.5t-44 11.5l-31-289h129q53 49 95 127t42 176q0 82-30.5 154t-84 126-125 85-153.5 31-154.5-31-126-85-85-126-31.5-154q0-86 35.5-165.5t105.5-137.5h127zm610 303q0-109-40-196.5t-99-143.5v-155l-33-11 64-151-60-14 60-146-62-16 23-51-60-136h-100q-4-37-54-62.5t-120-25.5q-72 0-122 26t-54 62h-100l-99 242 62 16-64 152 70 16-39 95v159q-59 59-99 147.5t-40 192.5q0 100 37.5 188.5t103 154 154 103.5 190.5 38q98 0 186-38t154-103.5 103.5-154 37.5-188.5zm531 51q2-27 2-51v-51l-242 14q4 37 0 74l240 14zm-346 689q20-16 37.5-34t33.5-38l-176-158q-25 29-53 53zm-629 0q-18 2-37.5 1t-38.5-1l-12 237q53 4 100 0l-12-237zm-778-70q16 20 33.5 37.5t37.5 34.5l160-181q-25-20-53-51l-178 160z"/><glyph unicode="ﬀ" horiz-adv-x="1331" d="M905 1315q-61 23-127.5 36t-128.5 13q-131 0-195.5-68.5t-64.5-205.5v-72h467v65q0 138 49 232zm488 43q-20 6-65.5 14t-94.5 8q-117 0-170-69.5t-53-218.5v-74h299v-121h-299v-897h-154v897h-467v-897h-153v897h-222v121h222v51q0 86 21.5 160t70.5 133 133 93 203 34q76 0 161.5-16.5t165.5-40.5q98 74 252 73 82 0 164-16z"/><glyph unicode="ﬁ" horiz-adv-x="1204" d="M864 0v897h-475v-897h-153v897h-222v121h222v47q0 211 112.5 326.5t337.5 115.5q78 0 153.5-10t139.5-29l-33-129q-61 18-132 29.5t-140 11.5q-143 0-214-75.5t-71-217.5v-69h629v-1018h-154z"/><glyph unicode="ﬂ" horiz-adv-x="1204" d="M864 0v1366q-25 4-83 10t-122 6q-139 0-204.5-65.5t-65.5-216.5v-82h279v-121h-279v-897h-153v897h-222v121h222v74q0 209 109.5 311t336.5 102q98 0 194.5-10t141.5-16v-1479h-154z"/><glyph unicode="ﬃ" horiz-adv-x="1822" d="M915 1313q-68 25-135 38t-131 13q-131 0-195.5-68.5t-64.5-205.5v-72h467v47q0 70 13 132.5t46 115.5zm570-1313v897h-475v-897h-154v897h-467v-897h-153v897h-222v121h222v51q0 86 21.5 160t70.5 133 133 93 203 34q80 0 172-17.5t174-48.5q57 41 128.5 62.5t168.5 21.5q76 0 151.5-10t138.5-29l-30-129q-61 18-133 29.5t-142 11.5q-143 0-212.5-75.5t-69.5-217.5v-69h628v-1018h-153z"/><glyph unicode="ﬄ" horiz-adv-x="1822" d="M905 1315q-61 23-127.5 36t-128.5 13q-131 0-195.5-68.5t-64.5-205.5v-72h467v74q0 137 49 223zm580-1315v1366q-25 4-83.5 10t-121.5 6q-141 0-205.5-65.5t-64.5-216.5v-82h278v-121h-278v-897h-154v897h-467v-897h-153v897h-222v121h222v51q0 84 21.5 159t70.5 133 133 92 203 34q80 0 168-16.5t167-43.5q53 39 128 58.5t176 19.5q98 0 194-10t141-16v-1479h-153z"/><glyph unicode="ﬆ" horiz-adv-x="1607" d="M1538 6q-43-10-94-16t-98-6q-152 0-208.5 71.5t-56.5 231.5v610h-219v121h219v24q0 160-80.5 249t-212.5 89q-113 0-166-54t-53-134q0-61 34-113.5t99-74.5l-16-119q-41 14-94 22t-109 8q-109 0-163-40.5t-54-112.5q0-61 37-95t93.5-56.5 121-42 120.5-51.5 93-86 37-144q0-63-26.5-118.5t-79-97.5-128-65.5-176.5-23.5q-66 0-130 8t-113 20l14 142q49-18 116.5-30.5t129.5-12.5q115 0 175 44t60 121q0 61-36.5 95t-92 57-121 42-121 52-92 86-36.5 144q0 63 28.5 116.5t79.5 91 124 56 163 10.5q-35 25-59.5 68t-24.5 106q0 61 24.5 116.5t71.5 96.5 119 65.5 164 24.5q90 0 169-26.5t137-82 92-140.5 34-201v-33h299v-121h-299v-567q0-61 7-102.5t24.5-66 46-34.5 73.5-10q78 0 140 16z"/><glyph horiz-adv-x="1820" d="M1567 543q0 176-61.5 271t-184.5 95q-74 0-131-37.5t-95-100-57.5-136.5-19.5-143v-355q88-29 199-28 80 0 144 25.5t110.5 77.5 71 135 24.5 196zm162 12q0-135-37-240.5t-105.5-178.5-166-110.5-218.5-37.5q-113 0-206 14t-132 25v1339q-25 4-83 10t-122 6q-139 0-204.5-65.5t-65.5-216.5v-82h279v-121h-279v-897h-153v897h-222v121h222v74q0 209 109.5 311t336.5 102q98 0 194.5-10t141.5-16v-500q0-45-5-97.5t-14-88.5l5-2q43 115 135 180t213 65q180 0 278.5-122.5t98.5-358.5z"/><glyph horiz-adv-x="1859" d="M1522 0v657q0 127-43 189.5t-150 62.5q-68 0-125-31.5t-99-89-64.5-134-22.5-167.5v-487h-154v1366q-25 4-83 10t-122 6q-139 0-204.5-65.5t-65.5-216.5v-82h279v-121h-279v-897h-153v897h-222v121h222v74q0 209 109.5 311t336.5 102q98 0 194.5-10t141.5-16v-484q0-57-4-112.5t-13-89.5l5-2q45 115 139 180t223 65q84 0 143.5-24.5t95-68.5 51-103.5 15.5-130.5v-709h-151z"/><glyph horiz-adv-x="1202" d="M1018-129q0-104-17.5-178t-55.5-122-102.5-71.5-158.5-23.5q-35 0-72 5t-67 13l16 135q29-12 62.5-18t68.5-6q53 0 86 12t51.5 41 26.5 77 8 126v1036h-475v-897h-153v897h-222v121h222v47q0 211 112.5 326.5t337.5 115.5q78 0 153.5-10t139.5-29l-33-129q-61 18-132 29.5t-140 11.5q-143 0-214-75.5t-71-217.5v-69h629v-1147z"/><glyph horiz-adv-x="1665" d="M864 1366q-25 4-83 10t-122 6q-139 0-204.5-65.5t-65.5-216.5v-82h279v-121h-279v-897h-153v897h-222v121h222v74q0 209 109.5 311t336.5 102q98 0 194.5-10t141.5-16v-918l383 457h186l-405-463 438-555h-201l-401 535v-535h-154v1366z"/><glyph horiz-adv-x="770" d="M553 1493l-369 117 49 125 353-152z"/><glyph horiz-adv-x="770" d="M217 1493l-33 90 353 152 49-125z"/><glyph horiz-adv-x="999" d="M377 1595q-2-43-26.5-68.5t-69.5-27.5q-43 2-69 28.5t-28 67.5q2 41 29 68t68 29q43-2 68.5-29t27.5-68zm436 0q-2-45-30.5-70.5t-67.5-25.5q-45 2-68.5 28.5t-25.5 67.5q2 41 28.5 69t65.5 28q41-2 68.5-27t29.5-70z"/><glyph horiz-adv-x="919" d="M184 1538v111h551v-111h-551z"/><glyph horiz-adv-x="1007" d="M776 1489l-272 127-275-127-45 92 322 168 317-166z"/><glyph horiz-adv-x="1075" d="M891 1655q-82-143-219-144-51 0-88 17.5t-67 38-57.5 38-62.5 17.5q-74 0-131-94l-82 59q39 70 94.5 107t124.5 37q51 0 88-17.5t67-38 57.5-38 62.5-17.5q72 0 131 94l82-59z"/><glyph horiz-adv-x="1007" d="M502 1489l-318 168 47 92 273-127 274 127 45-90z"/><glyph horiz-adv-x="878" d="M694 1739q0-102-68.5-170t-189.5-68q-127 0-189.5 69.5t-62.5 168.5h103q0-53 43-91t108-38q70 0 111 38t41 91h104z"/><glyph horiz-adv-x="575" d="M391 1602q0-43-30.5-74t-71.5-31q-43 0-74 29.5t-31 75.5q0 43 31 73.5t74 30.5 72.5-29.5 29.5-74.5z"/><glyph horiz-adv-x="821" d="M637 1675q0-92-62.5-154.5t-173.5-62.5q-100 0-158.5 51.5t-58.5 155.5q0 92 62.5 153.5t173.5 61.5q100 0 158.5-50.5t58.5-154.5zm-121-6q0 119-106 119-41 0-74-28.5t-33-88.5q0-119 107-119 41 0 73.5 29t32.5 88z"/><glyph horiz-adv-x="1069" d="M262 1491l-78 74 222 250 98-93zm346 0l-76 74 259 245 94-94z"/><glyph horiz-adv-x="696" d="M274 1257l-90 60 213 299 115-74z"/><glyph horiz-adv-x="753" d="M399 1161l-194 318 121 65 170-330z"/><glyph horiz-adv-x="735" d="M274 1171l-90 62 205 303 115-76z"/><glyph horiz-adv-x="571" d="M209 1346q0-41-28.5-70t-69.5-29-70 29-29 70 29 68.5 70 27.5 69.5-27.5 28.5-68.5zm350 0q0-41-28.5-70t-69.5-29q-43 0-71 29t-28 70q0 39 29 67.5t70 28.5 69.5-27.5 28.5-68.5z"/><glyph horiz-adv-x="808" d="M170 1276v117h469v-117h-469z"/><glyph horiz-adv-x="892" d="M616 1178l-176 176-178-176-67 71 247 264 246-262z"/><glyph horiz-adv-x="1021" d="M801 1378q-66-141-189-141-35 0-64.5 15.5t-56 33-48 32.5-42.5 15q-33 0-57.5-25.5t-40.5-60.5l-78 58q25 59 72 102t117 43q35 0 65.5-15.5t56-34 48-33.5 43.5-15q31 0 55.5 25.5t40.5 60.5z"/><glyph horiz-adv-x="841" d="M651 1468q0-127-61.5-193.5t-171.5-66.5q-111 0-169.5 67.5t-58.5 192.5h107q0-57 31.5-100t91.5-43q57 0 89 39t32 104h110z"/><glyph horiz-adv-x="962" d="M778 1595q0-41-28.5-68.5t-69.5-27.5q-39 0-67.5 28.5t-28.5 67.5q0 41 27.5 70t68.5 29 69.5-29 28.5-70zm-399 0q0-39-27.5-67.5t-68.5-28.5-70 27.5-29 68.5 29 70 70 29 68.5-29 27.5-70z"/></font>
</defs>
</svg>
