<svg xmlns="http://www.w3.org/2000/svg"><defs><font horiz-adv-x="1126"><font-face units-per-em="2048" ascent="1516" descent="-532"/><glyph horiz-adv-x="446"/><glyph horiz-adv-x="446"/><glyph horiz-adv-x="446"/><glyph unicode="!" horiz-adv-x="657" d="M506 133q0-66-46-111t-116-45q-68 0-114 45.5t-46 110.5q0 66 46 111t114 45q70 0 116-45t46-111zm-45 252h-225l-43 1065h307z"/><glyph unicode=""" horiz-adv-x="829" d="M319 918h-196l-33 520h262zm386 0h-195l-33 520h262z"/><glyph unicode="#" horiz-adv-x="1193" d="M956 842l-30-293h164v-184h-185l-37-365h-209l39 365h-270l-39-365h-209l39 365h-162v184h181l32 293h-164v182h183l37 358h209l-39-358h270l39 358h209l-39-358h162v-182h-181zm-477 0l-33-293h271l31 293h-269z"/><glyph unicode="$" horiz-adv-x="1011" d="M918 440q0-70-23-132t-67-113.5-107.5-87-140.5-54.5v-250h-189v236q-66 2-124 8t-124 19l19 237q29-10 62.5-18.5t67.5-13.5 66.5-8 63.5-3q49 0 89 9.5t69.5 27.5 45 48 15.5 69q0 53-36 87t-105.5 62.5-141 58-130 69.5-96.5 107.5-38 168.5q0 68 22.5 128t65.5 108 103.5 80 132.5 46v207h186v-193q53-2 106.5-8t102.5-16l-16-223q-61 16-120 25t-108 9q-53 0-93-10t-64.5-29.5-35.5-44-11-53.5q0-49 36.5-81.5t104-61.5 142.5-60.5 134.5-73.5 97.5-110 38-166z"/><glyph unicode="%" horiz-adv-x="1556" d="M506 1079q0 88-27.5 126t-87.5 38q-49 0-80.5-43t-31.5-117q0-88 28.5-126.5t85.5-38.5q49 0 81 42.5t32 118.5zm774-776q0 86-27.5 124t-85.5 38q-51 0-82.5-42t-31.5-116q0-88 28.5-127t87.5-39q47 0 79 44t32 118zm-578 791q0-74-24.5-137.5t-67.5-108.5-102-69.5-127-24.5q-147 0-225 85t-78 234q0 72 24.5 134.5t67.5 106.5 102.5 68.5 126.5 24.5q143 0 223-79.5t80-233.5zm-358-1139l-164 117 1026 1353 164-118zm1135 360q0-74-24.5-136t-69-107-102.5-70-126-25q-147 0-225 84t-78 236q0 72 23.5 134.5t67.5 106.5 102.5 68.5 126.5 24.5q143 0 224-80t81-236z"/><glyph unicode="&" horiz-adv-x="1632" d="M903 301q-53 41-109.5 87t-108.5 92-98 88-83 79q-35-31-60.5-60.5t-42-58-24.5-57.5-8-59q0-43 15-82t46-68 76-45 102-16q84 0 159 27.5t136 72.5zm-207 889q0 55-31.5 90t-95.5 35q-57 0-93-36t-36-93q0-23 5.5-47.5t18.5-53 34.5-61.5 52.5-68q35 29 61.5 57.5t45 56.5 28.5 58.5 10 61.5zm682-1241q-35 27-70.5 52.5t-70.5 52-71 52-70 52.5q-49-39-107.5-72t-125-57.5-141.5-38-157-13.5q-119 0-208 31t-146 86.5-86 129-29 157.5q0 53 12.5 101t35 91 53 82 68.5 75 85 73q-45 53-75.5 101t-51 92-31 88-10.5 87q0 70 27 131.5t79 108.5 129 73.5 173 26.5q174 0 269-81.5t95-219.5q0-37-7-71.5t-20.5-67.5-34-65.5-48-64.5-63.5-64.5-79-67.5q70-70 172.5-155t210.5-167q20 31 37 65t31 70.5 24.5 74.5 16.5 78 9 81 1 82h260q2-80-9-160t-34.5-155.5-59.5-146-81-132.5q51-39 100.5-73.5t159.5-114.5z"/><glyph unicode="'" horiz-adv-x="442" d="M319 918h-196l-33 520h262z"/><glyph unicode="(" horiz-adv-x="626" d="M410-440q-172 270-238 524t-66 500q0 242 71 502t235 526l190-88q-117-207-177-442.5t-60-487.5q0-520 243-942z"/><glyph unicode=")" horiz-adv-x="626" d="M524 590q0-248-67.5-506t-237.5-524l-190 88q117 207 178 442.5t61 489.5q0 518-241 942l198 90q168-270 233.5-523t65.5-499z"/><glyph unicode="*" horiz-adv-x="786" d="M625 928l-174 139 32-221h-186l33 221-176-139-91 159 207 82-207 82 93 162 174-139-33 221h186l-32-221 174 139 92-160-207-82 207-84z"/><glyph unicode="+" d="M686 500v-381h-248v381h-358v219h358v379h248v-379h361v-219h-361z"/><glyph unicode="," horiz-adv-x="528" d="M262 305q72 0 119-56t47-149q0-92-60.5-210.5t-203.5-243.5l-109 96q106 113 119.5 184.5t-35.5 128.5q-29 35-33 78t12.5 82 53.5 64.5 90 25.5z"/><glyph unicode="-" horiz-adv-x="684" d="M90 463v211h504v-211h-504z"/><glyph unicode="­" horiz-adv-x="684" d="M90 463v211h504v-211h-504z"/><glyph unicode="." horiz-adv-x="528" d="M430 145q0-70-48-119t-118-49-119 49.5-49 118.5q0 68 49.5 117t118.5 49q70 0 118-49t48-117z"/><glyph unicode="/" horiz-adv-x="948" d="M236-330h-259l717 1880h258z"/><glyph unicode="0" horiz-adv-x="1257" d="M903 532q0 150-71.5 241t-202.5 91q-57 0-107.5-22.5t-88.5-65.5-58.5-105.5-20.5-138.5q0-74 17.5-134t52.5-105 87-68.5 118-23.5q57 0 107 22.5t88 65.5 58.5 105 20.5 138zm268 17q0-133-44-239.5t-120.5-180.5-178-113-214.5-39q-123 0-220 36t-166.5 105.5-105.5 170-36 227.5q0 133 44 239.5t121 180.5 178 112.5 214 38.5q123 0 220.5-35.5t167-105 105-170 35.5-227.5z"/><glyph unicode="1" horiz-adv-x="700" d="M281 0v819l-209-86-41 217 315 119h203v-1069h-268z"/><glyph unicode="2" horiz-adv-x="985" d="M92 0v213l201 166q78 57 130 101t84 82 47 74 15 73q0 72-47 114.5t-133 42.5q-61 0-128.5-21.5t-115.5-51.5l-36 221q76 35 161.5 54t180.5 19q195 0 301-90t106-239q0-113-64.5-214.5t-193.5-195.5l-149-119-2-6q74 6 174 7t274 1v-231h-805z"/><glyph unicode="3" horiz-adv-x="937" d="M854 96q0-98-39-184t-113.5-152.5-183-103.5-246.5-37q-53 0-108 6t-98 19l22 229q39-12 91-21.5t102-9.5q137 0 213.5 63.5t76.5 164.5q0 61-30.5 105t-88 68.5-136 31-175.5-4.5v211q201-2 302.5 56.5t101.5 167.5q0 76-52.5 120.5t-144.5 44.5q-59 0-118.5-15t-112.5-44l-25 217q147 59 309 59 104 0 183.5-25.5t132.5-71.5 78.5-106.5 25.5-129.5q0-109-61.5-195t-163.5-131v-2q121-25 189.5-116t68.5-214z"/><glyph unicode="4" horiz-adv-x="1134" d="M635 811h-2l-348-580q39 2 106.5 3.5t127 1.5h116.5v575zm254-811v-371h-258v371h-555l-43 213 524 852h332v-829h217v-236h-217z"/><glyph unicode="5" horiz-adv-x="948" d="M868 131q0-109-46-203t-130-163.5-197.5-107.5-244.5-38q-43 0-86 4t-84 10l26 234q86-16 160-17 156 0 240 69t84 175q0 113-87 172.5t-257 59.5q-27 0-56.5-2t-58.5-5v746h692v-256l-444 2v-270q115 0 206-29t154.5-83 96-130 32.5-168z"/><glyph unicode="6" horiz-adv-x="1189" d="M836 444q0 115-57.5 178.5t-155.5 63.5q-55 0-97.5-18.5t-70-50-42-71.5-14.5-83q0-53 13.5-101.5t40-84 66.5-56 95-20.5q98 0 160 66t62 177zm276 29q0-109-38-199t-107.5-156.5-165.5-103.5-213-37q-111 0-199 38t-151.5 113-97.5 185.5-34 253.5q0 209 54.5 371t154 273.5 237.5 169 308 57.5q23 0 57.5-1t59.5-3v-232q-33 4-68 7t-67 3q-180 0-297-101t-162-320l2-3q43 55 122 89t177 34q201 0 314.5-120.5t113.5-317.5z"/><glyph unicode="7" horiz-adv-x="937" d="M891 844q-117-279-216.5-587t-168.5-628h-293q72 307 171 611.5t212 572.5q-37 0-127-1t-204.5-2-219.5-1v256h846v-221z"/><glyph unicode="8" horiz-adv-x="1140" d="M772 365q0 76-56.5 131t-166.5 112h-2q-86-53-133-109.5t-47-123.5q0-80 55-129t147-49q88 0 145.5 46t57.5 122zm-18 716q0 66-49.5 111t-137.5 45q-86 0-136-45t-50-117q0-63 48-112.5t149-104.5l2-2q92 61 133 111.5t41 113.5zm297-698q0-96-39-173t-108.5-128-161-78-195.5-27q-106 0-191.5 27t-144.5 76-90 116.5-31 149.5q0 66 21.5 122t57.5 100 78 79 93 68l-2 2q-113 66-172.5 150.5t-59.5 195.5q0 86 35 157.5t98.5 123 149.5 79 189 27.5q102 0 185-24.5t141.5-69.5 89-108.5 30.5-141.5q0-106-58.5-189t-179.5-163q55-33 101.5-68t83.5-80 58.5-100 21.5-123z"/><glyph unicode="9" horiz-adv-x="1189" d="M788 606q0 111-56 184.5t-161 73.5q-100 0-159.5-70.5t-59.5-172.5q0-117 54.5-179.5t160.5-62.5q98 0 159.5 65.5t61.5 161.5zm297-117q0-199-49-358.5t-145-276-241.5-176-336.5-59.5q-27 0-63.5 3t-71.5 9v240q31-10 72-16.5t74-6.5q205 0 318.5 96.5t145.5 323.5h-2q-43-51-119.5-84.5t-170.5-33.5q-96 0-174 31.5t-132.5 88-83 136-28.5 178.5q0 109 37 201t104.5 159.5 162.5 105 208 37.5q109 0 200-34.5t156.5-108.5 102-187.5 36.5-267.5z"/><glyph unicode=":" horiz-adv-x="610" d="M496 145q0-70-48.5-119t-117.5-49q-70 0-119 49.5t-49 118.5q0 68 49 117t119 49 118-49 48-117zm0 580q0-70-48.5-119t-117.5-49q-70 0-119 49t-49 119q0 68 49 117t119 49 118-49 48-117z"/><glyph unicode=";" horiz-adv-x="610" d="M328 305q74 0 121-56t47-149q0-92-60.5-210.5t-204.5-243.5l-108 96q104 113 117.5 184.5t-33.5 128.5q-29 35-33 78t12.5 82 52.5 64.5 89 25.5zm168 420q0-70-48.5-119t-117.5-49q-70 0-119 49t-49 119q0 68 49 117t119 49 118-49 48-117z"/><glyph unicode="<" d="M782 12l-653 604 651 603 172-172-485-429 487-428z"/><glyph unicode="=" d="M109 307v211h909v-211h-909zm0 391v211h909v-211h-909z"/><glyph unicode=">" d="M346 12l-172 172 485 428-487 428 172 179 653-605z"/><glyph unicode="?" horiz-adv-x="923" d="M555 133q0-66-46-111t-114-45-113.5 45.5-45.5 110.5q0 66 46 111t113 45q68 0 114-45t46-111zm272 918q0-86-29.5-146.5t-71.5-106.5-89-86-82-86-48-102.5 11-138.5h-254q-33 96-24.5 167t39 124 74.5 95 86 80 72 79 30 92q0 92-106.5 147.5t-297.5 61.5l33 237q168-4 292-39.5t206-93 120.5-131 38.5-153.5z"/><glyph unicode="@" horiz-adv-x="2097" d="M1176 821q-41 12-99 13-57 0-102-33t-75-87.5-45-118-15-124.5q0-156 82-156 70 0 134 103.5t101 302.5zm774-76q0-147-38-268t-108.5-206-167-129-211.5-44q-123 0-188.5 63.5t-62.5 160.5h-5q-23-45-54.5-84t-71-71-89-50.5-104.5-18.5q-115 0-185.5 87t-70.5 249q0 127 34 236.5t102.5 192.5 169.5 129 233 46q109 0 194.5-17t122.5-30l-82-436q-23-121 1-182.5t93-61.5q53 0 99.5 28t81 82 54 133 19.5 179q0 104-32.5 198.5t-103.5 169.5-182.5 119-264.5 44q-156 0-293.5-57.5t-240.5-164-161.5-254-58.5-321.5q0-299 166-465t497-166q193 0 412 68l31-195q-111-37-240-57.5t-233-20.5q-209 0-371 56.5t-271.5 164-166 257-56.5 333.5q0 219 76 408.5t213 328 318.5 213 388.5 74.5q195 0 347-55t254.5-154.5 154-229.5 51.5-282z"/><glyph unicode="A" horiz-adv-x="1282" d="M686 938q-16 53-30.5 105.5t-24.5 101.5h-4q-10-49-24.5-102.5t-29.5-102.5l-143-434h399zm297-938l-94 295h-520l-97-295h-268l463 1382h346l465-1382h-295z"/><glyph unicode="B" horiz-adv-x="1189" d="M825 412q0 96-69.5 146t-220.5 50h-72l-53-2v-391q23-2 66.5-4t82.5-2q131 0 198.5 55.5t67.5 147.5zm-41 587q0 84-55 132.5t-180 48.5q-33 0-66.5-1t-72.5-3v-367q23-2 47-2h71q127 0 191.5 50t64.5 142zm328-575q0-82-32.5-158t-101.5-137-176.5-97-250.5-36q-37 0-174 2t-234 2v1380q55 2 175 6.5t249 4.5q248 0 373-90.5t125-262.5q0-100-53.5-182t-147.5-119v-2q57-14 102.5-42.5t78-68.5 50-90.5 17.5-109.5z"/><glyph unicode="C" horiz-adv-x="1159" d="M1077 47q-78-31-172-47t-188-16q-174 0-298 53t-199 146-108.5 211-33.5 253q0 166 43 303t130 236.5 218 154 301 54.5q76 0 153.5-10.5t141.5-30.5l-37-246q-125 49-270 49-96 0-169-33.5t-121-96-72.5-147.5-24.5-188q0-229 98-349t301-120q63 0 137 16.5t129 43.5z"/><glyph unicode="D" horiz-adv-x="1366" d="M1004 694q0 115-24 202t-75 147.5-134 92-200 31.5q-47 0-88-2t-73-4v-932q29-4 67.5-7t77.5-3q98 0 180 28.5t142.5 87 93.5 148.5 33 211zm286 21q0-174-54-310.5t-155.5-227.5-242-138-310.5-47q-90 0-201.5 4t-183.5 6v1378q119 4 226.5 7.5t220.5 3.5q164 0 293-38t220-120 139-211 48-307z"/><glyph unicode="E" horiz-adv-x="1044" d="M143 0v1382h783v-223h-516v-340h473v-217h-473v-373h516v-229h-783z"/><glyph unicode="F" horiz-adv-x="964" d="M410 1155v-360h456v-217h-456v-578h-267v1382h758v-227h-491z"/><glyph unicode="G" horiz-adv-x="1382" d="M1245 66q-102-41-225-63.5t-248-22.5q-168 0-299 46t-220 134-134 212-45 277q0 168 50 307.5t147.5 238.5 241.5 153.5 329 54.5q102 0 202.5-16.5t188.5-43.5l-53-243q-160 66-355 65-119 0-208-36.5t-145-103.5-83-154-27-187q0-221 114-343t327-122q96 0 176 25v481h266v-659z"/><glyph unicode="H" horiz-adv-x="1404" d="M995 0v600h-585v-600h-267v1382h267v-553h585v553h269v-1382h-269z"/><glyph unicode="I" horiz-adv-x="552" d="M143 0v1382h267v-1382h-267z"/><glyph unicode="J" horiz-adv-x="710" d="M571 393q0-90-21.5-164.5t-68.5-130-121.5-86-179.5-30.5q-49 0-93 4t-87 12v229q25-8 64.5-14t78.5-6q80 0 120 43t40 147v985h268v-989z"/><glyph unicode="K" horiz-adv-x="1222" d="M854 0l-444 664v-664h-267v1382h267v-626l446 626h324l-506-663 530-719h-350z"/><glyph unicode="L" horiz-adv-x="878" d="M143 0v1382h267v-1151h448v-231h-715z"/><glyph unicode="M" horiz-adv-x="1835" d="M1499 0l-84 680q-14 117-22.5 236.5t-10.5 213.5h-4q-18-92-43.5-188t-58.5-197l-250-745h-248l-239 717q-31 94-64 213t-49 200h-4q-2-90-9-208.5t-20-247.5l-71-674h-259l166 1382h371l242-716q20-61 39.5-135t31.5-146h5q16 84 32.5 154.5t34.5 126.5l242 716h375l170-1382h-273z"/><glyph unicode="N" horiz-adv-x="1413" d="M1012 0h-23l-434 700q-94 156-121.5 210.5t-54.5 117.5q4-47 7-108.5t6-132 6-169 3-241.5v-377h-258v1382h314l405-655q94-154 116.5-199t53.5-114q-4 63-9 168.5t-7 174-3 134-1 156.5v335h258v-1382h-258z"/><glyph unicode="O" horiz-adv-x="1460" d="M1102 686q0 225-94.5 352t-278.5 127q-82 0-149.5-30.5t-117.5-90-77-147.5-27-199q0-113 24-201.5t70-151 115.5-95.5 161.5-33q82 0 150.5 31t118 90 77 147 27.5 201zm284 31q0-174-53-313.5t-146-234.5-216-143.5-262-48.5q-154 0-274 46.5t-199.5 135.5-120.5 216-41 291q0 174 53 313t146.5 234.5 216 143.5 262.5 48q154 0 273.5-46t199.5-135 120.5-216 40.5-291z"/><glyph unicode="P" horiz-adv-x="1132" d="M1085 946q0-106-36.5-197.5t-110.5-161-180.5-107.5-239.5-38q-25 0-48.5 1t-41.5 2l-18 1v-446h-267v1382q23 0 79.5 2t144.5 4.5 174 2.5q266 0 405-119t139-326zm-274-28q0 117-70.5 185t-216.5 68q-66 0-114-2v-497q6-2 23.5-4t45-4 56.5-2q131 0 203.5 70.5t72.5 185.5z"/><glyph unicode="Q" horiz-adv-x="1460" d="M1104 686q0 225-95.5 352t-279.5 127q-82 0-150.5-30.5t-117.5-90-77-147.5-28-199q0-113 23.5-201.5t71-151 117-95.5 161.5-33q82 0 150.5 31t119 90 78 147 27.5 201zm342-821q-121-16-204-5t-184.5 49-152.5 53-139 15h-57q-154 0-274 46.5t-199.5 135.5-120.5 216-41 291q0 174 53 313t146.5 234.5 216 143.5 262.5 48q154 0 273.5-46t199.5-135 120.5-216 40.5-291q0-86-13-164t-37.5-145.5-60.5-123-81-95-96-64.5q37 2 79-8.5t76.5-18.5 81.5-12 111 4v-225z"/><glyph unicode="R" horiz-adv-x="1177" d="M780 967q0 207-250 207-35 0-69.5-2.5t-50.5-4.5v-409q14 0 46.5-1t65.5-1q123 0 190.5 55.5t67.5 155.5zm51-967l-348 557h-73v-557h-267v1382q47 2 159 5.5t247 3.5q121 0 215-24t160.5-72 101.5-123.5 35-180.5q0-80-23.5-145.5t-65.5-113.5-98.5-81-123.5-49q14-18 45.5-60t60.5-89l299-453h-324z"/><glyph unicode="S" horiz-adv-x="1030" d="M956 408q0-94-34.5-173t-103-136.5-169-89.5-227.5-32q-170 0-322 37l29 256q70-29 150.5-45t156.5-16q51 0 94 10t75 30.5 49.5 53.5 17.5 78q0 61-39 101t-118 76-152.5 67.5-136 77-103.5 117-41 177.5q0 90 35 165t102.5 129.5 164.5 84 220 29.5q57 0 125-7t125-20l-25-233q-57 18-118.5 28.5t-122.5 10.5q-113 0-170.5-42t-57.5-118q0-57 40-97t117-75 154-68.5 140-79 104-118 41-178.5z"/><glyph unicode="T" horiz-adv-x="1044" d="M655 1155v-1155h-266v1155h-358v227h983v-227h-359z"/><glyph unicode="U" horiz-adv-x="1394" d="M1251 537q0-281-147.5-420.5t-425.5-139.5q-158 0-263.5 40t-165 109-83 157-23.5 196v903h267v-886q0-70 13-123.5t45-92 88-60 140-21.5q156 0 223.5 73.5t67.5 247.5v862h264v-845z"/><glyph unicode="V" horiz-adv-x="1286" d="M817 0h-346l-465 1382h295l266-827q23-80 44.5-160t37.5-147h4q18 76 40 157.5t44 153.5l269 823h274z"/><glyph unicode="W" horiz-adv-x="1961" d="M1567 0h-330l-211 756q-14 53-25.5 120.5t-19.5 131.5h-4q-25-180-43-252l-207-756h-332l-346 1382h285l184-755q18-94 33.5-178t26.5-166h4q12 84 27.5 169t37.5 171l209 759h266l215-768q23-80 41.5-166t30.5-165h4q12 94 24.5 174t28.5 153l183 772h262z"/><glyph unicode="X" horiz-adv-x="1286" d="M930 0l-297 508-297-508h-316l441 707-414 675h309l281-479 278 479h304l-408-673 455-709h-336z"/><glyph unicode="Y" horiz-adv-x="1148" d="M707 510v-510h-267v508l-444 874h293l192-389q29-59 51.5-112.5t42.5-106.5h5q20 51 45.5 108.5t60.5 129.5l184 370h283z"/><glyph unicode="Z" horiz-adv-x="1099" d="M92 0v205l498 811q31 47 49 74.5t41 56.5q-45-2-102.5-3t-149.5-1h-319v239h892v-215l-526-829q-27-41-37-58.5t-26-37.5q16 2 53 3t89 1h456v-246h-918z"/><glyph unicode="[" horiz-adv-x="671" d="M145-420v2011h453v-207h-207v-1593h207v-211h-453z"/><glyph unicode="\" horiz-adv-x="980" d="M731-330l-717 1880h258l717-1880h-258z"/><glyph unicode="]" horiz-adv-x="671" d="M74-420v211h205v1593h-205v207h450v-2011h-450z"/><glyph unicode="^" d="M811 690l-268 506-256-506-174 92 336 600h200l350-598z"/><glyph unicode="_" d="M0-504v211h1126v-211h-1126z"/><glyph unicode="`" horiz-adv-x="716" d="M467 1143l-334 264 143 156 308-295z"/><glyph unicode="a" horiz-adv-x="1073" d="M666 453q-96 0-162-11.5t-104-32-54-48-16-62.5q0-51 33.5-85t89.5-34q45 0 85 20.5t68.5 55.5 44 78 15.5 88v31zm20-453q0 49 2 92t8 80l-2 2q-37-88-125-141t-200-53q-135 0-213 81.5t-78 208.5q0 90 41 157t117.5 111 185 65.5 244.5 21.5v43q0 90-42 131t-141 41q-68 0-150.5-18.5t-158.5-49.5l-41 199q92 31 192.5 50t188.5 19q117 0 197-23.5t128-69.5 68.5-111.5 20.5-153.5v-420q0-68 2-135.5t6-126.5h-250z"/><glyph unicode="b" horiz-adv-x="1144" d="M797 535q0 287-174 286-51 0-92.5-27.5t-69-72.5-43-104.5-15.5-122.5v-287q55-18 138-19 55 0 102 18.5t81 60.5 53.5 108 19.5 160zm274 26q0-129-37-236.5t-107.5-184.5-173-118.5-233.5-41.5q-111 0-201 12t-178 37v1466h262v-438q0-47-4-102.5t-12-96.5h2q39 84 120 132t187 48q184 0 279.5-125t95.5-352z"/><glyph unicode="c" horiz-adv-x="870" d="M815 29q-59-23-135-35t-152-12q-106 0-191 28.5t-144.5 88-91 153.5-31.5 223q0 119 31.5 221.5t95 178 161 118.5 230.5 43q59 0 116.5-9t106.5-26l-41-225q-41 16-90 27.5t-100 11.5q-117 0-176.5-86t-59.5-227q0-66 12.5-120t41-93 73.5-60.5 111-21.5q106 0 198 41l35-219z"/><glyph unicode="d" horiz-adv-x="1144" d="M741 813q-37 8-70.5 12t-66.5 4q-119 0-187.5-82.5t-68.5-263.5q0-289 174-288 49 0 90 26.5t70 73.5 44 107.5 15 125.5v285zm17-813q0 39 3 84t9 86h-4q-43-88-127-140.5t-195-52.5q-182 0-276 127t-94 351q0 129 36.5 235.5t106.5 184 170 119.5 225 42q35 0 66-2t63-6v467h260v-1495h-243z"/><glyph unicode="e" horiz-adv-x="1052" d="M715 629q2 104-45 160.5t-131 56.5q-82 0-137.5-57.5t-63.5-159.5h377zm260-23q0-49-3-92t-5-61h-631q0-270 270-271 147 0 307 54l27-195q-86-29-181-45t-184-16q-248 0-376.5 128t-128.5 392q0 115 32.5 213t96 171.5 153.5 113.5 201 40q109 0 189.5-32.5t132-91 76-137.5 24.5-171z"/><glyph unicode="f" horiz-adv-x="724" d="M748 1280q-16 4-53.5 11t-78.5 7q-84 0-122.5-48t-38.5-154v-78h237v-203h-237v-815h-260v815h-179v203h179v59q0 221 105.5 327.5t309.5 106.5q49 0 93.5-5t62.5-9z"/><glyph unicode="g" horiz-adv-x="1105" d="M930 813q23-57 22-119 0-84-27.5-152.5t-82-119.5-136-79-192.5-28h-36.5l-35.5 2q-37-29-36-61 0-29 27.5-44t117.5-19l143-5q178-6 269.5-80.5t91.5-222.5q0-84-38-156.5t-109.5-127-173-85-230.5-30.5q-207 0-327 74.5t-120 222.5q0 78 45 144.5t117 111.5q-88 51-88 151 0 119 121 187-80 47-117 119.5t-37 160.5q0 80 28 151t82 122 136 80.5 193 29.5q88 0 165-22h342v-205h-114zm-508-821v-2q-49-33-73.5-74t-24.5-82q0-72 58-112.5t163-40.5q127 0 188.5 49t61.5 120q0 55-38 92.5t-136 41.5l-156 4zm280 682q0 78-46 127t-132 49-132-49-46-127 46-127 132-49 132 49 46 127z"/><glyph unicode="h" horiz-adv-x="1169" d="M766 0v651q0 84-28.5 126t-98.5 42q-49 0-92-25.5t-75-71.5-50.5-106.5-18.5-126.5v-489h-262v1495h262v-438q0-53-4-108.5t-14-98.5h4q45 88 132 138t202 50q84 0 142.5-24.5t94-68.5 51-102.5 15.5-127.5v-715h-260z"/><glyph unicode="i" horiz-adv-x="544" d="M141 0v1018h262v-1018h-262zm295 1327q0-66-48-112t-116-46-114.5 46.5-46.5 111.5q0 66 47 113t114 47q68 0 116-46t48-114z"/><glyph unicode="j" horiz-adv-x="555" d="M412-76q0-104-21.5-184t-68-135.5-119-84-174.5-28.5q-49 0-94.5 6t-63.5 10l18 224q14-6 51-13.5t85-7.5q70 0 98.5 41t28.5 146v1120h260v-1094zm32 1403q0-66-48-112t-115-46q-68 0-116 46.5t-48 111.5q0 66 48 113t116 47 115.5-46 47.5-114z"/><glyph unicode="k" horiz-adv-x="1071" d="M719 0l-316 504v-504h-262v1495h262v-901l297 424h308l-351-455 390-563h-328z"/><glyph unicode="l" horiz-adv-x="544" d="M141 0v1495h262v-1495h-262z"/><glyph unicode="m" horiz-adv-x="1773" d="M1370 0v643q0 88-26.5 132t-94.5 44q-43 0-85-23.5t-75.5-68.5-53-106.5-19.5-133.5v-487h-258v645q0 84-25.5 129t-95.5 45q-45 0-87-24.5t-75-69.5-52.5-106.5-19.5-131.5v-487h-262v1018h248q0-39-3-90t-9-92l2-2q47 94 135 149t201 55q66 0 115-17t81.5-46 53-65 30.5-74q18 39 49 74.5t73 64.5 95.5 46 114.5 17q150 0 227.5-84t77.5-254v-700h-262z"/><glyph unicode="n" horiz-adv-x="1169" d="M766 0v651q0 84-28.5 126t-98.5 42q-49 0-92-25.5t-75-71.5-50.5-105.5-18.5-124.5v-492h-262v1018h248q0-41-4-93.5t-10-88.5h2q47 92 136 147t210 55q84 0 142.5-24.5t94-68.5 51-102.5 15.5-127.5v-715h-260z"/><glyph unicode="o" horiz-adv-x="1132" d="M795 508q0 150-59.5 229.5t-166.5 79.5q-53 0-96-19.5t-72.5-58.5-46-96-16.5-133q0-307 227-307 104 0 167 76.5t63 228.5zm270 24q0-119-35-219t-101.5-176-163.5-116.5-218-40.5q-111 0-199 30.5t-150.5 93-96 157.5-33.5 224q0 119 34.5 219.5t101 176 164 116.5 218.5 41q231 0 355-129t124-377z"/><glyph unicode="p" horiz-adv-x="1144" d="M797 535q0 289-174 288-49 0-90-26.5t-70-73.5-44.5-107.5-15.5-126.5v-282q61-18 138-19 57 0 103 19.5t81 60.5 53.5 108 18.5 159zm274 28q0-133-35-239.5t-102.5-182-167.5-115.5-231-40q-39 0-70 2t-62 6v-488h-262v1512h244q0-43-2-88t-8-82h4q43 90 125 140t194 50q180 0 276.5-124t96.5-351z"/><glyph unicode="q" horiz-adv-x="1144" d="M741 815q-37 6-69.5 10t-67.5 4q-119 0-187.5-82.5t-68.5-263.5q0-289 172-288 49 0 91 26.5t71 74.5 44 108.5 15 127.5v283zm0-1309v461q0 51 3.5 101.5t11.5 95.5l-4 2q-41-88-121-138.5t-180-50.5q-184 0-280.5 122t-96.5 356q0 129 36.5 236.5t107.5 184 174.5 118.5 236.5 42q102 0 193-8t179-22v-1500h-260z"/><glyph unicode="r" horiz-adv-x="727" d="M686 782q-283 55-283-366v-416h-262v1018h248q0-41-5-97.5t-13-107.5h4q20 51 48 94t67.5 75 92 47 115.5 9z"/><glyph unicode="s" horiz-adv-x="854" d="M774 311q0-72-27.5-132t-84-105-139.5-69.5-191-24.5q-61 0-123 7t-111 19l15 217q47-18 110.5-29.5t120.5-11.5q76 0 117 28t41 77q0 41-28 66.5t-78 46-107.5 43-102.5 55-73.5 88-28.5 135.5q0 68 26.5 125t80 101 134.5 68.5 187 24.5q43 0 91-5t97-13l-14-207q-45 12-92 20.5t-94 8.5q-72 0-110-26.5t-38-72.5q0-39 28-64.5t79-46 109.5-45 103.5-58 73.5-87 28.5-133.5z"/><glyph unicode="t" horiz-adv-x="768" d="M707 8q-51-12-110.5-20t-107.5-8q-86 0-143 17t-91 54-49.5 98.5-15.5 155.5v510h-174v203h174v313l263 70v-383h243v-203h-243v-461q0-90 24.5-122.5t89.5-32.5q59 0 121 14z"/><glyph unicode="u" horiz-adv-x="1167" d="M780 0q0 47 3 97t10 85h-2q-49-94-137.5-148t-209.5-54q-84 0-142 24.5t-94 68.5-51.5 102-15.5 128v715h260v-651q0-84 29-126t98-42q49 0 92.5 25.5t76 71.5 50 105.5 17.5 124.5v492h262v-1018h-246z"/><glyph unicode="v" horiz-adv-x="1036" d="M672 0h-312l-350 1018h283l164-492q23-78 38-136t27-118h4q12 63 27.5 124t34.5 128l160 494h276z"/><glyph unicode="w" horiz-adv-x="1630" d="M1294 0h-293l-145 463q-16 61-30.5 121.5t-24.5 115.5h-2q-12-59-27.5-120.5t-38.5-147.5l-127-432h-280l-306 1018h289l115-424 30-119q29-119 40-172h2q14 72 31.5 148.5t35.5 144.5l127 422h260l129-422q25-88 42.5-157.5t29.5-137.5h4q10 66 26.5 132.5t41.5 160.5l118 424h267z"/><glyph unicode="x" horiz-adv-x="1081" d="M729 0l-197 342-196-342h-313l350 514-330 504h313l197-336 199 336h290l-319-502 336-516h-330z"/><glyph unicode="y" horiz-adv-x="1028" d="M633-57q-47-129-101.5-216t-119-139.5-139-75-167.5-22.5q-39 0-77.5 4t-55.5 8l27 224q14-4 49-10.5t74-6.5 71.5 10.5 61.5 34 52.5 62.5 43.5 94l33 90-375 1018h295l137-400q23-72 43.5-143.5t40.5-148.5h2q8 37 18.5 74.5t22 78.5 24.5 85 28 87l118 367h281z"/><glyph unicode="z" horiz-adv-x="921" d="M92 0v186l410 600q-33-2-90.5-3t-126.5-1h-181v236h713v-187l-401-593q29 2 88 2h321v-240h-733z"/><glyph unicode="{" horiz-adv-x="741" d="M627-420q-199 0-286 108.5t-87 348.5v276q0 123-48 173.5t-157 56.5v196q55 4 93 15.5t62.5 35 37 65.5 12.5 106v178q0 229 87 340.5t286 111.5h43v-207q-51 0-84-10t-52.5-36.5-27.5-72.5-8-122v-176q0-156-48.5-232t-140.5-92v-4q88-12 138.5-93t50.5-237v-274q0-76 8-123t27.5-73.5 52-37 84.5-10.5v-211h-43z"/><glyph unicode="|" horiz-adv-x="589" d="M186-494v2048h209v-2048h-209z"/><glyph unicode="}" horiz-adv-x="741" d="M692 543q-109-6-157-56.5t-48-173.5v-276q0-240-87-348.5t-285-108.5h-43v211q51 0 83.5 10.5t52 37 28 73.5 8.5 123v274q0 156 50 237t138 93v4q-90 12-139 89t-49 229v182q0 76-8.5 122t-28 72.5-52 36.5-83.5 10v207h43q199 0 285.5-111.5t86.5-340.5v-172q0-66 12.5-109t37-67.5 62.5-36 93-15.5v-196z"/><glyph unicode="~" d="M1042 1159q0-147-84-237.5t-225-90.5q-80 0-130 29t-102 90.5-69.5 77.5-54.5 16q-49 0-71.5-40.5t-24.5-122.5h-195v37q0 147 84 237t225 90q80 0 130-28.5t102.5-91 70-79 54.5-16.5q49 0 71.5 41t24.5 125h194v-37z"/><glyph unicode="¡" horiz-adv-x="657" d="M465-432h-307l39 1065h225zm10 1317q0-66-46-111t-116-45q-68 0-113.5 45t-45.5 111 46 110.5 113 44.5q70 0 116-44.5t46-110.5z"/><glyph unicode="¢" horiz-adv-x="929" d="M850 260q-41-18-93-31.5t-104-17.5v-260h-196v260q-92 12-162 50t-116 101.5-69.5 146.5-23.5 183q0 96 24.5 180t72.5 151 117 111 157 60v227h196v-213q47-4 96.5-12t92.5-22l-33-220q-86 41-197 41-121 0-187.5-75.5t-66.5-212.5q0-61 14.5-111.5t44-87.5 78-57.5 115.5-20.5q55 0 107.5 12.5t99.5 36.5z"/><glyph unicode="£" horiz-adv-x="974" d="M86 0v182q96 68 138 139.5t42 170.5q0 29-1 56t-7 68h-199v201h177q-10 63-16.5 113.5t-6.5 93.5q0 186 108.5 284.5t309.5 98.5q57 0 119.5-8t107.5-23l-45-215q-37 14-81 22.5t-87 8.5q-80 0-124-42t-44-126q0-31 5-75t16-132h276v-201h-252q2-20 3-34.5t1-26.5v-39q0-94-32.5-165.5t-104.5-135.5l45 5 57.5 4 61.5 2 55 1h316v-227h-838z"/><glyph unicode="¤" d="M739 684q0 96-41 149.5t-137 53.5q-70 0-122-52.5t-52-156.5q0-92 41-152.5t135-60.5q68 0 122 52t54 167zm115-588l-158 211q-72-33-151-33-33 0-60.5 5.5t-52.5 13.5l-141-195-203 144 139 174q-33 47-51 108.5t-18 143.5q0 150 80 252l-148 188 199 141 145-198q66 27 148 26 33 0 66.5-5t64.5-17l143 196 199-145-146-182q29-41 44.5-99.5t15.5-136.5q0-72-20.5-134t-55.5-110l162-202z"/><glyph unicode="¥" horiz-adv-x="1230" d="M809 633h254v-166h-318v-119h318v-170h-318v-178h-264v178h-317v170h317v119h-317v166h256l-375 749h291l182-376q31-61 54.5-119t41.5-113h4q20 61 49 127t64 131l178 350h281z"/><glyph unicode="¦" horiz-adv-x="589" d="M186-494v775h209v-775h-209zm0 1295v753h209v-753h-209z"/><glyph unicode="§" horiz-adv-x="1085" d="M700 471q0 49-22.5 92t-60 85-87 86-104.5 97q-35-27-50.5-61.5t-15.5-69.5q0-45 18.5-85t53.5-80.5 86-88 117-104.5q35 25 50 59.5t15 69.5zm238 35q0-90-43-167t-115-130q35-43 55.5-95.5t20.5-117.5q0-63-24.5-123.5t-80-109-143.5-77-213-28.5q-35 0-82 5t-88 15l17 220q82-25 157-25 92 0 134 36t42 89q0 47-33.5 89t-83.5 85-108.5 92-109 107.5-84 130-33.5 164.5q0 92 42 167.5t114 129.5q-37 47-56.5 97t-19.5 116q0 68 23.5 128t75.5 106 133 73.5 198 27.5q41 0 85-3t83-13l-15-217q-70 20-145 20-84 0-121-29.5t-37-84.5q0-45 34-87t84-87 109.5-95.5 109.5-111 84-134 34-163.5z"/><glyph unicode="¨" horiz-adv-x="964" d="M416 1327q0-59-41-100t-101-41q-59 0-100 41t-41 100 41 100 100 41 100.5-41 41.5-100zm415 0q0-59-40.5-100t-100.5-41q-59 0-100 41t-41 100 41 100 100 41 100-41 41-100z"/><glyph unicode="©" horiz-adv-x="1560" d="M983 362q-88-41-209-40-158 0-244 96t-86 258q0 74 20.5 141.5t64.5 118.5 113 82 163 31q51 0 92-8.5t76-22.5l-29-174q-23 16-57.5 25.5t-71.5 9.5q-82 0-117.5-53.5t-35.5-145.5q0-178 143-178 39 0 74.5 6t68.5 22l35-168zm297 320q0 104-39 196.5t-107.5 161-159.5 108.5-196 40q-104 0-196.5-40t-160-107.5-107.5-160-40-196.5 40-196.5 107.5-161 160-108.5 196.5-40 195.5 40 160 107.5 107.5 160 39 196.5zm199 2q0-145-55.5-272t-150.5-222.5-222-150.5-273-55q-147 0-275 54t-222.5 149.5-148.5 222.5-54 272 55 272 150.5 222.5 222.5 150.5 272 55 272.5-54 222.5-149.5 150.5-222.5 55.5-272z"/><glyph unicode="ª" horiz-adv-x="825" d="M489 977q-113 0-161.5-23.5t-48.5-76.5q0-31 20-49.5t55-18.5q33 0 58.5 14.5t42 37 25.5 48 9 47.5v21zm-387-617v203h637v-203h-637zm398 306q0 25 2 51t6 49h-2q-27-55-83-87t-124-32q-109 0-163 55.5t-54 145.5q0 68 29.5 118t85 81.5 129 47 163.5 15.5v31q0 18-4 34.5t-17 31-36.5 22.5-62.5 8q-55 0-113.5-14.5t-110.5-36.5l-18 170q57 23 129 35t145 12q84 0 141.5-19.5t91.5-53.5 48-77 14-96v-317q0-35 1-74t2-64.5 1-35.5h-200z"/><glyph unicode="«" horiz-adv-x="1093" d="M305 201l-219 397 225 403 201-92-174-309 178-305zm467 10l-242 387 246 393 197-94-189-297 193-293z"/><glyph unicode="¬" d="M770 195v305h-690v219h921v-524h-231z"/><glyph unicode="®" horiz-adv-x="1155" d="M627 1174q0 49-62 49h-33v-105h23q37 0 54.5 16.5t17.5 39.5zm-2-314l-78 174h-15v-174h-122v457h190q86 0 124-35t38-92q0-53-25.5-85t-66.5-44q18-23 35-55l67-146h-147zm272 225q0 66-25.5 125.5t-68.5 103.5-101.5 69.5-123.5 25.5q-68 0-126.5-25.5t-101.5-68.5-68.5-101.5-25.5-126.5q0-66 25.5-125t68.5-103 101.5-69.5 126.5-25.5q66 0 124 25.5t101 68.5 68.5 101 25.5 126zm160 0q0-98-38-184t-103.5-149.5-152.5-100.5-185-37q-100 0-188.5 37t-153 100.5-101.5 149.5-37 184 38 185.5 102.5 151 152.5 100.5 187 37q100 0 187-36t151.5-99.5 102.5-151 38-187.5z"/><glyph unicode="¯" horiz-adv-x="819" d="M133 1229v188h553v-188h-553z"/><glyph unicode="°" horiz-adv-x="794" d="M502 1237q0 41-25.5 80t-83.5 39q-49 0-80.5-34t-31.5-89q0-57 30.5-89t79.5-32q51 0 81 35t30 90zm194 0q0-72-26.5-126t-70.5-91-101.5-55.5-116.5-18.5q-137 0-216 76t-79 209q0 68 26.5 122t70.5 91 99.5 56.5 112.5 19.5q80 0 137.5-22.5t93.5-61.5 53-90.5 17-108.5z"/><glyph unicode="±" d="M88 0v219h950v-219h-950zm600 709v-375h-250v375h-358v217h358v372h250v-372h359v-217h-359z"/><glyph unicode="²" horiz-adv-x="761" d="M72 733v176l147 150q94 96 139 156.5t45 115.5q0 51-30.5 80t-89.5 29q-39 0-87.5-12.5t-84.5-28.5l-31 182q51 23 126 36t140 13q150 0 234-62.5t84-187.5q0-53-11.5-98t-33-85-52-79-73.5-86l-103-104q53 2 120 3t179 1v-199h-618z"/><glyph unicode="³" horiz-adv-x="745" d="M662 1010q0-133-108-213t-290-80q-45 0-103.5 6t-103.5 16l27 164q31-10 76-15t88-5q78 0 122 30.5t44 81.5q0 63-77 93t-218 12v155q133 0 202.5 31t69.5 94q0 43-31.5 65.5t-91.5 22.5q-41 0-90-9t-86-25l-22 157q51 18 122.5 28.5t133.5 10.5q150 0 228.5-55t78.5-164q0-74-32-122t-95-77q78-23 117-76.5t39-125.5z"/><glyph unicode="´" horiz-adv-x="716" d="M252 1143l-119 125 307 295 144-154z"/><glyph unicode="¶" horiz-adv-x="1218" d="M600 473q-123 0-216 35t-153.5 98.5-90 146.5-29.5 177q0 102 35.5 185t101 143.5 156 92 196.5 31.5v-909zm381 701v-1371h-367v209h144v1370h356v-208h-133z"/><glyph unicode="·" horiz-adv-x="550" d="M446 610q0-72-50-121t-120-49q-72 0-121 49.5t-49 120.5q0 70 49.5 119t120.5 49q70 0 120-49t50-119z"/><glyph unicode="¸" horiz-adv-x="571" d="M373-82q76-104 62.5-204.5t-103.5-192.5h-199q78 92 86 166.5t-63 162.5z"/><glyph unicode="¹" horiz-adv-x="606" d="M229 733v664l-168-62-38 193 243 86h215v-881h-252z"/><glyph unicode="º" horiz-adv-x="872" d="M580 1028q0 94-37 144.5t-107 50.5q-66 0-104.5-50.5t-38.5-146.5q0-47 9-84t27.5-61.5 45-38 59.5-13.5q68 0 107 51.5t39 147.5zm-469-668v203h651v-203h-651zm680 682q0-84-25-155.5t-72-124.5-115.5-83-156.5-30q-78 0-141.5 21.5t-108.5 66.5-68.5 113-23.5 160q0 84 24.5 155.5t72.5 126 116.5 84 157.5 29.5q78 0 140-21.5t107-66.5 69-114 24-161z"/><glyph unicode="»" horiz-adv-x="1093" d="M315 211l-196 94 190 297-192 293 205 96 241-387zm467-10l-202 92 176 309-178 305 210 94 220-397z"/><glyph unicode="¼" horiz-adv-x="1740" d="M229 733v664l-168-62-38 193 243 86h215v-881h-252zm-5-1040l-162 110 1335 1854 160-113zm1324 264v-185h-221v185h-404l-14 161 301 535h338v-512h129v-184h-129zm-223 552l-205-372q18 0 46 1t57.5 1h101.5v370z"/><glyph unicode="½" horiz-adv-x="1757" d="M229 733v664l-168-62-38 193 243 86h215v-881h-252zm-5-1040l-162 110 1335 1854 160-113zm831 79v176l147 150q94 96 139 156.5t45 115.5q0 51-30.5 80t-89.5 29q-39 0-87.5-12.5t-84.5-28.5l-31 182q51 23 126 36t140 13q150 0 234-62.5t84-187.5q0-53-11.5-98t-33-85-52-79-73.5-86l-103-104q53 2 120 3t179 1v-199h-618z"/><glyph unicode="¾" horiz-adv-x="1777" d="M261-307l-162 110 1335 1854 160-113zm401 1317q0-133-108-213t-290-80q-45 0-103.5 6t-103.5 16l27 164q31-10 76-15t88-5q78 0 122 30.5t44 81.5q0 63-77 93t-218 12v155q133 0 202.5 31t69.5 94q0 43-31.5 65.5t-91.5 22.5q-41 0-90-9t-86-25l-22 157q51 18 122.5 28.5t133.5 10.5q150 0 228.5-55t78.5-164q0-74-32-122t-95-77q78-23 117-76.5t39-125.5zm925-1053v-185h-221v185h-404l-14 161 301 535h338v-512h129v-184h-129zm-223 552l-205-372q18 0 46 1t57.5 1h101.5v370z"/><glyph unicode="¿" horiz-adv-x="923" d="M754-451q-170 4-293 40t-205 93.5-121 131-39 153.5q0 86 30 146.5t72 106.5 89 86 80.5 86 47 102.5-11.5 138.5h256q33-96 25-167t-39-124-75-95-86-80-71.5-79-29.5-92q0-92 106.5-147.5t296.5-61.5zm-66 1336q0-66-46-111t-114-45-113.5 45-45.5 111 46 110.5 113 44.5q68 0 114-44.5t46-110.5z"/><glyph unicode="À" horiz-adv-x="1282" d="M686 938q-16 53-30.5 105.5t-24.5 101.5h-4q-10-49-24.5-102.5t-29.5-102.5l-143-434h399zm297-938l-94 295h-520l-97-295h-268l463 1382h346l465-1382h-295zm-222 1466l-442 109 62 188 423-153z"/><glyph unicode="Á" horiz-adv-x="1282" d="M686 938q-16 53-30.5 105.5t-24.5 101.5h-4q-10-49-24.5-102.5t-29.5-102.5l-143-434h399zm297-938l-94 295h-520l-97-295h-268l463 1382h346l465-1382h-295zm-485 1466l-43 144 426 153 59-188z"/><glyph unicode="Â" horiz-adv-x="1282" d="M686 938q-16 53-30.5 105.5t-24.5 101.5h-4q-10-49-24.5-102.5t-29.5-102.5l-143-434h399zm297-938l-94 295h-520l-97-295h-268l463 1382h346l465-1382h-295zm-69 1464l-279 113-280-113-60 135 344 173 336-170z"/><glyph unicode="Ã" horiz-adv-x="1282" d="M686 938q-16 53-30.5 105.5t-24.5 101.5h-4q-10-49-24.5-102.5t-29.5-102.5l-143-434h399zm297-938l-94 295h-520l-97-295h-268l463 1382h346l465-1382h-295zm39 1659q-94-168-258-168-47 0-82 13.5t-76 39-58 34.5-44 9q-68 0-119-88l-131 90q94 168 258 168 47 0 83-13t76-39 58.5-35 44.5-9q35 0 63.5 21.5t53.5 64.5z"/><glyph unicode="Ä" horiz-adv-x="1282" d="M686 938q-16 53-30.5 105.5t-24.5 101.5h-4q-10-49-24.5-102.5t-29.5-102.5l-143-434h399zm297-938l-94 295h-520l-97-295h-268l463 1382h346l465-1382h-295zm12 1614q0-59-41-100t-100-41-100.5 40.5-41.5 100.5q0 59 41 100t101 41q59 0 100-41t41-100zm-442 0q0-59-41-100t-101-41q-59 0-100 40.5t-41 100.5q0 59 41 100t100 41 100.5-41 41.5-100z"/><glyph unicode="Å" horiz-adv-x="1282" d="M686 938q-16 53-30.5 105.5t-24.5 101.5h-4q-10-49-24.5-102.5t-29.5-102.5l-143-434h399zm297-938l-94 295h-520l-97-295h-268l463 1382h346l465-1382h-295zm-67 1696q0-111-79-178.5t-204-67.5q-127 0-195.5 57.5t-68.5 169.5q0 111 80 178.5t205 67.5 193.5-57 68.5-170zm-176-10q0 109-96 108-43 0-70-27.5t-27-78.5q0-109 95-109 43 0 70.5 28t27.5 79z"/><glyph unicode="Æ" horiz-adv-x="1636" d="M760 1161h-19q-29-74-58.5-142.5t-68.5-148.5l-182-356h328v647zm0-1161v305h-418l-147-305h-273l684 1382h907v-223h-493v-340h455v-217h-455v-373h500v-229h-760z"/><glyph unicode="Ç" horiz-adv-x="1159" d="M1077 47q-78-31-172-47t-188-16q-174 0-298 53t-199 146-108.5 211-33.5 253q0 166 43 303t130 236.5 218 154 301 54.5q76 0 153.5-10.5t141.5-30.5l-37-246q-125 49-270 49-96 0-169-33.5t-121-96-72.5-147.5-24.5-188q0-229 98-349t301-120q63 0 137 16.5t129 43.5zm-333-129q76-104 62.5-204.5t-103.5-192.5h-199q78 92 86 166.5t-63 162.5z"/><glyph unicode="È" horiz-adv-x="1044" d="M143 0v1382h783v-223h-516v-340h473v-217h-473v-373h516v-229h-783zm512 1466l-442 109 62 188 423-153z"/><glyph unicode="É" horiz-adv-x="1044" d="M143 0v1382h783v-223h-516v-340h473v-217h-473v-373h516v-229h-783zm248 1466l-43 144 426 153 59-188z"/><glyph unicode="Ê" horiz-adv-x="1044" d="M143 0v1382h783v-223h-516v-340h473v-217h-473v-373h516v-229h-783zm666 1464l-279 113-280-113-60 135 344 173 336-170z"/><glyph unicode="Ë" horiz-adv-x="1044" d="M143 0v1382h783v-223h-516v-340h473v-217h-473v-373h516v-229h-783zm742 1614q0-59-41-100t-100-41-100.5 40.5-41.5 100.5q0 59 41 100t101 41q59 0 100-41t41-100zm-442 0q0-59-41-100t-101-41q-59 0-100 40.5t-41 100.5q0 59 41 100t100 41 100.5-41 41.5-100z"/><glyph unicode="Ì" horiz-adv-x="552" d="M143 0v1382h267v-1382h-267zm262 1466l-442 109 62 188 423-153z"/><glyph unicode="Í" horiz-adv-x="552" d="M143 0v1382h267v-1382h-267zm10 1466l-43 144 426 153 59-188z"/><glyph unicode="Î" horiz-adv-x="552" d="M143 0v1382h267v-1382h-267zm414 1464l-279 113-280-113-60 135 344 173 336-170z"/><glyph unicode="Ï" horiz-adv-x="552" d="M143 0v1382h267v-1382h-267zm483 1614q0-59-40.5-100t-100.5-41q-59 0-100 40.5t-41 100.5q0 59 41 100t100 41 100-41 41-100zm-413 0q0-59-41-100t-101-41q-59 0-100 40.5t-41 100.5q0 59 41 100t100 41 100.5-41 41.5-100z"/><glyph unicode="Ð" horiz-adv-x="1384" d="M1022 694q0 115-23.5 202t-76 147.5-135 92-199.5 31.5q-47 0-88-2t-74-4v-352h250v-203h-250v-377q29-4 67.5-7t77.5-3q100 0 182.5 28.5t142.5 87 93 148.5 33 211zm287 21q0-172-53.5-307.5t-152.5-227.5-240.5-140-315.5-48q-90 0-202 4t-183 6v604h-154v203h154v571q119 4 227.5 7.5t220.5 3.5q164 0 292-38t219-120 139.5-211 48.5-307z"/><glyph unicode="Ñ" horiz-adv-x="1413" d="M1012 0h-23l-434 700q-94 156-121.5 210.5t-54.5 117.5q4-47 7-108.5t6-132 6-169 3-241.5v-377h-258v1382h314l405-655q94-154 116.5-199t53.5-114q-4 63-9 168.5t-7 174-3 134-1 156.5v335h258v-1382h-258zm86 1659q-94-168-258-168-47 0-82 13.5t-76 39-58 34.5-44 9q-68 0-119-88l-131 90q94 168 258 168 47 0 83-13t76-39 58.5-35 44.5-9q35 0 63.5 21.5t53.5 64.5z"/><glyph unicode="Ò" horiz-adv-x="1460" d="M1102 686q0 225-94.5 352t-278.5 127q-82 0-149.5-30.5t-117.5-90-77-147.5-27-199q0-113 24-201.5t70-151 115.5-95.5 161.5-33q82 0 150.5 31t118 90 77 147 27.5 201zm284 31q0-174-53-313.5t-146-234.5-216-143.5-262-48.5q-154 0-274 46.5t-199.5 135.5-120.5 216-41 291q0 174 53 313t146.5 234.5 216 143.5 262.5 48q154 0 273.5-46t199.5-135 120.5-216 40.5-291zm-532 749l-442 109 62 188 423-153z"/><glyph unicode="Ó" horiz-adv-x="1460" d="M1102 686q0 225-94.5 352t-278.5 127q-82 0-149.5-30.5t-117.5-90-77-147.5-27-199q0-113 24-201.5t70-151 115.5-95.5 161.5-33q82 0 150.5 31t118 90 77 147 27.5 201zm284 31q0-174-53-313.5t-146-234.5-216-143.5-262-48.5q-154 0-274 46.5t-199.5 135.5-120.5 216-41 291q0 174 53 313t146.5 234.5 216 143.5 262.5 48q154 0 273.5-46t199.5-135 120.5-216 40.5-291zm-768 749l-43 144 426 153 59-188z"/><glyph unicode="Ô" horiz-adv-x="1460" d="M1102 686q0 225-94.5 352t-278.5 127q-82 0-149.5-30.5t-117.5-90-77-147.5-27-199q0-113 24-201.5t70-151 115.5-95.5 161.5-33q82 0 150.5 31t118 90 77 147 27.5 201zm284 31q0-174-53-313.5t-146-234.5-216-143.5-262-48.5q-154 0-274 46.5t-199.5 135.5-120.5 216-41 291q0 174 53 313t146.5 234.5 216 143.5 262.5 48q154 0 273.5-46t199.5-135 120.5-216 40.5-291zm-362 747l-279 113-280-113-60 135 344 173 336-170z"/><glyph unicode="Õ" horiz-adv-x="1460" d="M1102 686q0 225-94.5 352t-278.5 127q-82 0-149.5-30.5t-117.5-90-77-147.5-27-199q0-113 24-201.5t70-151 115.5-95.5 161.5-33q82 0 150.5 31t118 90 77 147 27.5 201zm284 31q0-174-53-313.5t-146-234.5-216-143.5-262-48.5q-154 0-274 46.5t-199.5 135.5-120.5 216-41 291q0 174 53 313t146.5 234.5 216 143.5 262.5 48q154 0 273.5-46t199.5-135 120.5-216 40.5-291zm-270 942q-94-168-258-168-47 0-82 13.5t-76 39-58 34.5-44 9q-68 0-119-88l-131 90q94 168 258 168 47 0 83-13t76-39 58.5-35 44.5-9q35 0 63.5 21.5t53.5 64.5z"/><glyph unicode="Ö" horiz-adv-x="1460" d="M1102 686q0 225-94.5 352t-278.5 127q-82 0-149.5-30.5t-117.5-90-77-147.5-27-199q0-113 24-201.5t70-151 115.5-95.5 161.5-33q82 0 150.5 31t118 90 77 147 27.5 201zm284 31q0-174-53-313.5t-146-234.5-216-143.5-262-48.5q-154 0-274 46.5t-199.5 135.5-120.5 216-41 291q0 174 53 313t146.5 234.5 216 143.5 262.5 48q154 0 273.5-46t199.5-135 120.5-216 40.5-291zm-288 897q0-59-41-100t-100-41-100.5 40.5-41.5 100.5q0 59 41 100t101 41q59 0 100-41t41-100zm-442 0q0-59-41-100t-101-41q-59 0-100 40.5t-41 100.5q0 59 41 100t100 41 100.5-41 41.5-100z"/><glyph unicode="×" d="M870 141l-315 316-315-316-144 144 316 315-316 315 160 160 315-315 316 315 143-143-315-316 315-315z"/><glyph unicode="Ø" horiz-adv-x="1460" d="M434 340l422 809q-25 12-59.5 18.5t-67.5 6.5q-84 0-154.5-31t-122-91.5-79-149.5-27.5-204q0-66 8-121t21.5-99 28-75.5 30.5-62.5zm592 702q-98-188-168-322t-138.5-265-115.5-222q27-10 60.5-17t64.5-7q84 0 154.5 30.5t123 92 80 150.5 27.5 204q0 121-25.5 204.5t-62.5 151.5zm236 453l-107-207q113-82 172-225t59-346q0-174-53-313.5t-146-234.5-216-143.5-262-48.5q-59 0-115.5 8.5t-104.5 24.5l-106-209-184 86 106 207q-55 41-98 96.5t-73 127-45 158.5-15 190q0 174 53 313t146.5 234.5 216 143.5 262.5 48q59 0 115.5-8t103.5-25l106 209z"/><glyph unicode="Ù" horiz-adv-x="1394" d="M1251 537q0-281-147.5-420.5t-425.5-139.5q-158 0-263.5 40t-165 109-83 157-23.5 196v903h267v-886q0-70 13-123.5t45-92 88-60 140-21.5q156 0 223.5 73.5t67.5 247.5v862h264v-845zm-473 929l-442 109 62 188 423-153z"/><glyph unicode="Ú" horiz-adv-x="1394" d="M1251 537q0-281-147.5-420.5t-425.5-139.5q-158 0-263.5 40t-165 109-83 157-23.5 196v903h267v-886q0-70 13-123.5t45-92 88-60 140-21.5q156 0 223.5 73.5t67.5 247.5v862h264v-845zm-600 929l-43 144 426 153 59-188z"/><glyph unicode="Û" horiz-adv-x="1394" d="M1251 537q0-281-147.5-420.5t-425.5-139.5q-158 0-263.5 40t-165 109-83 157-23.5 196v903h267v-886q0-70 13-123.5t45-92 88-60 140-21.5q156 0 223.5 73.5t67.5 247.5v862h264v-845zm-270 927l-279 113-280-113-60 135 344 173 336-170z"/><glyph unicode="Ü" horiz-adv-x="1394" d="M1251 537q0-281-147.5-420.5t-425.5-139.5q-158 0-263.5 40t-165 109-83 157-23.5 196v903h267v-886q0-70 13-123.5t45-92 88-60 140-21.5q156 0 223.5 73.5t67.5 247.5v862h264v-845zm-192 1077q0-59-41-100t-100-41-100.5 40.5-41.5 100.5q0 59 41 100t101 41q59 0 100-41t41-100zm-442 0q0-59-41-100t-101-41q-59 0-100 40.5t-41 100.5q0 59 41 100t100 41 100.5-41 41.5-100z"/><glyph unicode="Ý" horiz-adv-x="1148" d="M707 510v-510h-267v508l-444 874h293l192-389q29-59 51.5-112.5t42.5-106.5h5q20 51 45.5 108.5t60.5 129.5l184 370h283zm-193 956l-43 144 426 153 59-188z"/><glyph unicode="Þ" horiz-adv-x="1116" d="M811 725q0 117-70.5 185.5t-216.5 68.5q-33 0-65.5-1t-48.5-3v-498q16-2 51-5t74-3q131 0 203.5 70.5t72.5 185.5zm274 29q0-106-36.5-197.5t-110.5-161-180.5-107.5-239.5-38q-33 0-63.5 2t-44.5 2v-254h-267v1382h267v-186q16 0 53 1t78 1q266 0 405-118.5t139-325.5z"/><glyph unicode="ß" horiz-adv-x="1243" d="M1180 322q0-76-31-140.5t-87-109.5-134-70-172-25q-137 0-217 29l14 215q43-18 91-29.5t95-11.5q86 0 128 33t42 82q0 41-24.5 70.5t-71.5 59.5-94 58.5-86 64.5-63.5 90-24.5 128q0 80 30.5 132t89 107.5 85 90 26.5 92.5q0 57-41 88t-112 31q-106 0-163-70t-57-213v-1024h-262v1012q0 131 38 227t105.5 155.5 155.5 87 193 27.5q94 0 171-20.5t131-60 84-97 30-127.5q0-88-32-142t-94.5-105.5-87-80-24.5-79.5q0-41 24.5-71t72.5-60.5 95.5-60.5 86-66.5 64.5-89.5 26-127z"/><glyph unicode="à" horiz-adv-x="1073" d="M666 453q-96 0-162-11.5t-104-32-54-48-16-62.5q0-51 33.5-85t89.5-34q45 0 85 20.5t68.5 55.5 44 78 15.5 88v31zm20-453q0 49 2 92t8 80l-2 2q-37-88-125-141t-200-53q-135 0-213 81.5t-78 208.5q0 90 41 157t117.5 111 185 65.5 244.5 21.5v43q0 90-42 131t-141 41q-68 0-150.5-18.5t-158.5-49.5l-41 199q92 31 192.5 50t188.5 19q117 0 197-23.5t128-69.5 68.5-111.5 20.5-153.5v-420q0-68 2-135.5t6-126.5h-250zm-110 1143l-334 264 143 156 308-295z"/><glyph unicode="á" horiz-adv-x="1073" d="M666 453q-96 0-162-11.5t-104-32-54-48-16-62.5q0-51 33.5-85t89.5-34q45 0 85 20.5t68.5 55.5 44 78 15.5 88v31zm20-453q0 49 2 92t8 80l-2 2q-37-88-125-141t-200-53q-135 0-213 81.5t-78 208.5q0 90 41 157t117.5 111 185 65.5 244.5 21.5v43q0 90-42 131t-141 41q-68 0-150.5-18.5t-158.5-49.5l-41 199q92 31 192.5 50t188.5 19q117 0 197-23.5t128-69.5 68.5-111.5 20.5-153.5v-420q0-68 2-135.5t6-126.5h-250zm-180 1143l-119 125 307 295 144-154z"/><glyph unicode="â" horiz-adv-x="1073" d="M666 453q-96 0-162-11.5t-104-32-54-48-16-62.5q0-51 33.5-85t89.5-34q45 0 85 20.5t68.5 55.5 44 78 15.5 88v31zm20-453q0 49 2 92t8 80l-2 2q-37-88-125-141t-200-53q-135 0-213 81.5t-78 208.5q0 90 41 157t117.5 111 185 65.5 244.5 21.5v43q0 90-42 131t-141 41q-68 0-150.5-18.5t-158.5-49.5l-41 199q92 31 192.5 50t188.5 19q117 0 197-23.5t128-69.5 68.5-111.5 20.5-153.5v-420q0-68 2-135.5t6-126.5h-250zm69 1147l-210 166-216-166-100 119 318 278 311-276z"/><glyph unicode="ã" horiz-adv-x="1073" d="M666 453q-96 0-162-11.5t-104-32-54-48-16-62.5q0-51 33.5-85t89.5-34q45 0 85 20.5t68.5 55.5 44 78 15.5 88v31zm20-453q0 49 2 92t8 80l-2 2q-37-88-125-141t-200-53q-135 0-213 81.5t-78 208.5q0 90 41 157t117.5 111 185 65.5 244.5 21.5v43q0 90-42 131t-141 41q-68 0-150.5-18.5t-158.5-49.5l-41 199q92 31 192.5 50t188.5 19q117 0 197-23.5t128-69.5 68.5-111.5 20.5-153.5v-420q0-68 2-135.5t6-126.5h-250zm223 1364q-92-182-247-182-47 0-81 14t-73 42-56.5 38-43.5 10q-61 0-113-92l-125 96q92 182 250 183 45 0 79-14.5t73.5-42 57-38 42.5-10.5q61 0 113 92z"/><glyph unicode="ä" horiz-adv-x="1073" d="M666 453q-96 0-162-11.5t-104-32-54-48-16-62.5q0-51 33.5-85t89.5-34q45 0 85 20.5t68.5 55.5 44 78 15.5 88v31zm20-453q0 49 2 92t8 80l-2 2q-37-88-125-141t-200-53q-135 0-213 81.5t-78 208.5q0 90 41 157t117.5 111 185 65.5 244.5 21.5v43q0 90-42 131t-141 41q-68 0-150.5-18.5t-158.5-49.5l-41 199q92 31 192.5 50t188.5 19q117 0 197-23.5t128-69.5 68.5-111.5 20.5-153.5v-420q0-68 2-135.5t6-126.5h-250zm-213 1327q0-59-41-100t-101-41q-59 0-100 41t-41 100 41 100 100 41 100.5-41 41.5-100zm415 0q0-59-40.5-100t-100.5-41q-59 0-100 41t-41 100 41 100 100 41 100-41 41-100z"/><glyph unicode="å" horiz-adv-x="1073" d="M666 453q-96 0-162-11.5t-104-32-54-48-16-62.5q0-51 33.5-85t89.5-34q45 0 85 20.5t68.5 55.5 44 78 15.5 88v31zm20-453q0 49 2 92t8 80l-2 2q-37-88-125-141t-200-53q-135 0-213 81.5t-78 208.5q0 90 41 157t117.5 111 185 65.5 244.5 21.5v43q0 90-42 131t-141 41q-68 0-150.5-18.5t-158.5-49.5l-41 199q92 31 192.5 50t188.5 19q117 0 197-23.5t128-69.5 68.5-111.5 20.5-153.5v-420q0-68 2-135.5t6-126.5h-250zm129 1382q0-115-78-186.5t-201-71.5q-125 0-191.5 59.5t-66.5 178.5q0 55 20.5 102t58.5 82 89 53.5 113 18.5q125 0 190.5-59.5t65.5-176.5zm-172-12q0 59-23.5 85.5t-71.5 26.5q-43 0-70.5-28.5t-27.5-81.5q0-113 96-113 43 0 70 29t27 82z"/><glyph unicode="æ" horiz-adv-x="1638" d="M666 453q-96 0-162-11.5t-104-32-54-48-16-62.5q0-51 33.5-85t89.5-34q45 0 85 20.5t68.5 55.5 44 78 15.5 88v31zm634 180q2 102-45 157.5t-131 55.5q-82 0-136-57.5t-64-155.5h376zm261-27q0-45-3.5-87t-5.5-60h-630q0-276 270-277 74 0 150.5 13.5t156.5 40.5l27-195q-86-29-181.5-45t-183.5-16q-164 0-268.5 55t-144.5 151h-3q-51-94-147-150t-221-56q-141 0-220 80.5t-79 209.5q0 90 41 157t117.5 111 185 65.5 244.5 21.5v43q0 90-42 131t-141 41q-68 0-150.5-18.5t-158.5-49.5l-41 199q92 31 192.5 50t188.5 19q109 0 188.5-29.5t128.5-97.5h3q47 57 126.5 91t178.5 34q109 0 189.5-32.5t131.5-91 76-137.5 25-171z"/><glyph unicode="ç" horiz-adv-x="870" d="M815 29q-59-23-135-35t-152-12q-106 0-191 28.5t-144.5 88-91 153.5-31.5 223q0 119 31.5 221.5t95 178 161 118.5 230.5 43q59 0 116.5-9t106.5-26l-41-225q-41 16-90 27.5t-100 11.5q-117 0-176.5-86t-59.5-227q0-66 12.5-120t41-93 73.5-60.5 111-21.5q106 0 198 41l35-219zm-245-111q76-104 62.5-204.5t-103.5-192.5h-199q78 92 86 166.5t-63 162.5z"/><glyph unicode="è" horiz-adv-x="1052" d="M715 629q2 104-45 160.5t-131 56.5q-82 0-137.5-57.5t-63.5-159.5h377zm260-23q0-49-3-92t-5-61h-631q0-270 270-271 147 0 307 54l27-195q-86-29-181-45t-184-16q-248 0-376.5 128t-128.5 392q0 115 32.5 213t96 171.5 153.5 113.5 201 40q109 0 189.5-32.5t132-91 76-137.5 24.5-171zm-395 537l-334 264 143 156 308-295z"/><glyph unicode="é" horiz-adv-x="1052" d="M715 629q2 104-45 160.5t-131 56.5q-82 0-137.5-57.5t-63.5-159.5h377zm260-23q0-49-3-92t-5-61h-631q0-270 270-271 147 0 307 54l27-195q-86-29-181-45t-184-16q-248 0-376.5 128t-128.5 392q0 115 32.5 213t96 171.5 153.5 113.5 201 40q109 0 189.5-32.5t132-91 76-137.5 24.5-171zm-463 537l-119 125 307 295 144-154z"/><glyph unicode="ê" horiz-adv-x="1052" d="M715 629q2 104-45 160.5t-131 56.5q-82 0-137.5-57.5t-63.5-159.5h377zm260-23q0-49-3-92t-5-61h-631q0-270 270-271 147 0 307 54l27-195q-86-29-181-45t-184-16q-248 0-376.5 128t-128.5 392q0 115 32.5 213t96 171.5 153.5 113.5 201 40q109 0 189.5-32.5t132-91 76-137.5 24.5-171zm-218 541l-210 166-216-166-100 119 318 278 311-276z"/><glyph unicode="ë" horiz-adv-x="1052" d="M715 629q2 104-45 160.5t-131 56.5q-82 0-137.5-57.5t-63.5-159.5h377zm260-23q0-49-3-92t-5-61h-631q0-270 270-271 147 0 307 54l27-195q-86-29-181-45t-184-16q-248 0-376.5 128t-128.5 392q0 115 32.5 213t96 171.5 153.5 113.5 201 40q109 0 189.5-32.5t132-91 76-137.5 24.5-171zm-496 721q0-59-41-100t-101-41q-59 0-100 41t-41 100 41 100 100 41 100.5-41 41.5-100zm415 0q0-59-40.5-100t-100.5-41q-59 0-100 41t-41 100 41 100 100 41 100-41 41-100z"/><glyph unicode="ì" horiz-adv-x="544" d="M141 0v1018h262v-1018h-262zm110 1135l-227 342 188 100 193-358z"/><glyph unicode="í" horiz-adv-x="544" d="M141 0v1018h262v-1018h-262zm135 1139l-143 102 234 332 176-119z"/><glyph unicode="î" horiz-adv-x="544" d="M141 0v1018h262v-1018h-262zm313 1147l-180 166-186-166-94 117 280 278 281-274z"/><glyph unicode="ï" horiz-adv-x="544" d="M141 0v1018h262v-1018h-262zm465 1327q0-57-42-99t-99-42q-59 0-100.5 42t-41.5 99q0 59 41 100t101 41q59 0 100-41t41-100zm-379 0q0-57-42-99t-99-42q-59 0-100.5 41t-41.5 100 41 100 101 41q59 0 100-41t41-100z"/><glyph unicode="ð" horiz-adv-x="1136" d="M788 532q0 131-54 208t-169 77q-45 0-86-18.5t-71.5-55-49-94-18.5-137.5q0-152 61.5-230.5t169.5-78.5q94 0 155.5 78.5t61.5 250.5zm273 37q0-150-40-260t-109.5-184-162-109.5-198.5-35.5-194.5 30.5-153 94-100 159.5-35.5 228q0 123 36.5 222t103 170.5 157 110.5 196.5 39q47 0 92-14t70-49q-14 25-27.5 46t-23.5 38q-20 35-47 69.5t-62 71.5l-188-84-107 123 172 76q-35 29-73.5 58.5t-81.5 57.5l256 109q74-55 141-123l182 80 105-123-176-76q129-160 198.5-343t69.5-382z"/><glyph unicode="ñ" horiz-adv-x="1169" d="M766 0v651q0 84-28.5 126t-98.5 42q-49 0-92-25.5t-75-71.5-50.5-105.5-18.5-124.5v-492h-262v1018h248q0-41-4-93.5t-10-88.5h2q47 92 136 147t210 55q84 0 142.5-24.5t94-68.5 51-102.5 15.5-127.5v-715h-260zm192 1364q-92-182-247-182-47 0-81 14t-73 42-56.5 38-43.5 10q-61 0-113-92l-125 96q92 182 250 183 45 0 79-14.5t73.5-42 57-38 42.5-10.5q61 0 113 92z"/><glyph unicode="ò" horiz-adv-x="1132" d="M795 508q0 150-59.5 229.5t-166.5 79.5q-53 0-96-19.5t-72.5-58.5-46-96-16.5-133q0-307 227-307 104 0 167 76.5t63 228.5zm270 24q0-119-35-219t-101.5-176-163.5-116.5-218-40.5q-111 0-199 30.5t-150.5 93-96 157.5-33.5 224q0 119 34.5 219.5t101 176 164 116.5 218.5 41q231 0 355-129t124-377zm-459 611l-334 264 143 156 308-295z"/><glyph unicode="ó" horiz-adv-x="1132" d="M795 508q0 150-59.5 229.5t-166.5 79.5q-53 0-96-19.5t-72.5-58.5-46-96-16.5-133q0-307 227-307 104 0 167 76.5t63 228.5zm270 24q0-119-35-219t-101.5-176-163.5-116.5-218-40.5q-111 0-199 30.5t-150.5 93-96 157.5-33.5 224q0 119 34.5 219.5t101 176 164 116.5 218.5 41q231 0 355-129t124-377zm-528 611l-119 125 307 295 144-154z"/><glyph unicode="ô" horiz-adv-x="1132" d="M795 508q0 150-59.5 229.5t-166.5 79.5q-53 0-96-19.5t-72.5-58.5-46-96-16.5-133q0-307 227-307 104 0 167 76.5t63 228.5zm270 24q0-119-35-219t-101.5-176-163.5-116.5-218-40.5q-111 0-199 30.5t-150.5 93-96 157.5-33.5 224q0 119 34.5 219.5t101 176 164 116.5 218.5 41q231 0 355-129t124-377zm-275 615l-210 166-216-166-100 119 318 278 311-276z"/><glyph unicode="õ" horiz-adv-x="1132" d="M795 508q0 150-59.5 229.5t-166.5 79.5q-53 0-96-19.5t-72.5-58.5-46-96-16.5-133q0-307 227-307 104 0 167 76.5t63 228.5zm270 24q0-119-35-219t-101.5-176-163.5-116.5-218-40.5q-111 0-199 30.5t-150.5 93-96 157.5-33.5 224q0 119 34.5 219.5t101 176 164 116.5 218.5 41q231 0 355-129t124-377zm-113 832q-92-182-247-182-47 0-81 14t-73 42-56.5 38-43.5 10q-61 0-113-92l-125 96q92 182 250 183 45 0 79-14.5t73.5-42 57-38 42.5-10.5q61 0 113 92z"/><glyph unicode="ö" horiz-adv-x="1132" d="M795 508q0 150-59.5 229.5t-166.5 79.5q-53 0-96-19.5t-72.5-58.5-46-96-16.5-133q0-307 227-307 104 0 167 76.5t63 228.5zm270 24q0-119-35-219t-101.5-176-163.5-116.5-218-40.5q-111 0-199 30.5t-150.5 93-96 157.5-33.5 224q0 119 34.5 219.5t101 176 164 116.5 218.5 41q231 0 355-129t124-377zm-555 795q0-59-41-100t-101-41q-59 0-100 41t-41 100 41 100 100 41 100.5-41 41.5-100zm415 0q0-59-40.5-100t-100.5-41q-59 0-100 41t-41 100 41 100 100 41 100-41 41-100z"/><glyph unicode="÷" d="M721 199q0-66-47-113t-113-47-113 47-47 113 47.5 112.5 112.5 46.5q66 0 113-46.5t47-112.5zm-641 301v219h967v-219h-967zm641 520q0-66-47-113t-113-47-113 47-47 113 47.5 113 112.5 47q66 0 113-47t47-113z"/><glyph unicode="ø" horiz-adv-x="1132" d="M643 821q-14 6-33.5 9.5t-38.5 3.5q-59 0-106-21.5t-80-62.5-50.5-102.5-17.5-139.5q0-113 41-221zm172-311q0 115-41 221l-285-534q31-12 72-13 119 0 186.5 85t67.5 241zm250 22q0-119-35-219t-101.5-176-163.5-116.5-218-40.5q-88 0-160 22l-102-192-146 63 103 190q-86 63-130 170t-44 252q0 119 34.5 219.5t101 176 164 116.5 218.5 41q88 0 159-22l103 192 145-63-102-191q86-63 130-170t44-252z"/><glyph unicode="ù" horiz-adv-x="1167" d="M780 0q0 47 3 97t10 85h-2q-49-94-137.5-148t-209.5-54q-84 0-142 24.5t-94 68.5-51.5 102-15.5 128v715h260v-651q0-84 29-126t98-42q49 0 92.5 25.5t76 71.5 50 105.5 17.5 124.5v492h262v-1018h-246zm-176 1143l-334 264 143 156 308-295z"/><glyph unicode="ú" horiz-adv-x="1167" d="M780 0q0 47 3 97t10 85h-2q-49-94-137.5-148t-209.5-54q-84 0-142 24.5t-94 68.5-51.5 102-15.5 128v715h260v-651q0-84 29-126t98-42q49 0 92.5 25.5t76 71.5 50 105.5 17.5 124.5v492h262v-1018h-246zm-211 1143l-119 125 307 295 144-154z"/><glyph unicode="û" horiz-adv-x="1167" d="M780 0q0 47 3 97t10 85h-2q-49-94-137.5-148t-209.5-54q-84 0-142 24.5t-94 68.5-51.5 102-15.5 128v715h260v-651q0-84 29-126t98-42q49 0 92.5 25.5t76 71.5 50 105.5 17.5 124.5v492h262v-1018h-246zm14 1147l-210 166-216-166-100 119 318 278 311-276z"/><glyph unicode="ü" horiz-adv-x="1167" d="M780 0q0 47 3 97t10 85h-2q-49-94-137.5-148t-209.5-54q-84 0-142 24.5t-94 68.5-51.5 102-15.5 128v715h260v-651q0-84 29-126t98-42q49 0 92.5 25.5t76 71.5 50 105.5 17.5 124.5v492h262v-1018h-246zm-264 1327q0-59-41-100t-101-41q-59 0-100 41t-41 100 41 100 100 41 100.5-41 41.5-100zm415 0q0-59-40.5-100t-100.5-41q-59 0-100 41t-41 100 41 100 100 41 100-41 41-100z"/><glyph unicode="ý" horiz-adv-x="1028" d="M633-57q-47-129-101.5-216t-119-139.5-139-75-167.5-22.5q-39 0-77.5 4t-55.5 8l27 224q14-4 49-10.5t74-6.5 71.5 10.5 61.5 34 52.5 62.5 43.5 94l33 90-375 1018h295l137-400q23-72 43.5-143.5t40.5-148.5h2q8 37 18.5 74.5t22 78.5 24.5 85 28 87l118 367h281zm-115 1200l-119 125 307 295 144-154z"/><glyph unicode="þ" horiz-adv-x="1144" d="M797 535q0 289-174 288-49 0-90-26.5t-70-73.5-44.5-107.5-15.5-126.5v-282q61-18 138-19 57 0 103 19.5t81 60.5 53.5 108 18.5 159zm274 28q0-133-35-239.5t-102.5-182-167.5-115.5-231-40q-39 0-70 2t-62 6v-488h-262v1989h262v-418q0-57-2-111.5t-8-97.5h4q41 78 117 124t184 46q180 0 276.5-124t96.5-351z"/><glyph unicode="ÿ" horiz-adv-x="1028" d="M633-57q-47-129-101.5-216t-119-139.5-139-75-167.5-22.5q-39 0-77.5 4t-55.5 8l27 224q14-4 49-10.5t74-6.5 71.5 10.5 61.5 34 52.5 62.5 43.5 94l33 90-375 1018h295l137-400q23-72 43.5-143.5t40.5-148.5h2q8 37 18.5 74.5t22 78.5 24.5 85 28 87l118 367h281zm-178 1384q0-59-41-100t-101-41q-59 0-100 41t-41 100 41 100 100 41 100.5-41 41.5-100zm415 0q0-59-40.5-100t-100.5-41q-59 0-100 41t-41 100 41 100 100 41 100-41 41-100z"/><glyph unicode="Ā" horiz-adv-x="1282" d="M686 938q-16 53-30.5 105.5t-24.5 101.5h-4q-10-49-24.5-102.5t-29.5-102.5l-143-434h399zm297-938l-94 295h-520l-97-295h-268l463 1382h346l465-1382h-295zm-651 1518v165h600v-165h-600z"/><glyph unicode="ā" horiz-adv-x="1073" d="M666 453q-96 0-162-11.5t-104-32-54-48-16-62.5q0-51 33.5-85t89.5-34q45 0 85 20.5t68.5 55.5 44 78 15.5 88v31zm20-453q0 49 2 92t8 80l-2 2q-37-88-125-141t-200-53q-135 0-213 81.5t-78 208.5q0 90 41 157t117.5 111 185 65.5 244.5 21.5v43q0 90-42 131t-141 41q-68 0-150.5-18.5t-158.5-49.5l-41 199q92 31 192.5 50t188.5 19q117 0 197-23.5t128-69.5 68.5-111.5 20.5-153.5v-420q0-68 2-135.5t6-126.5h-250zm-420 1229v188h553v-188h-553z"/><glyph unicode="Ă" horiz-adv-x="1282" d="M686 938q-16 53-30.5 105.5t-24.5 101.5h-4q-10-49-24.5-102.5t-29.5-102.5l-143-434h399zm297-938l-94 295h-520l-97-295h-268l463 1382h346l465-1382h-295zm-59 1759q0-57-18.5-108.5t-56.5-89-93-59-125-21.5-124 21.5-91 60.5-55.5 89-18.5 107h156q0-49 39-83t96-34q61 0 98 33t37 84h156z"/><glyph unicode="ă" horiz-adv-x="1073" d="M666 453q-96 0-162-11.5t-104-32-54-48-16-62.5q0-51 33.5-85t89.5-34q45 0 85 20.5t68.5 55.5 44 78 15.5 88v31zm20-453q0 49 2 92t8 80l-2 2q-37-88-125-141t-200-53q-135 0-213 81.5t-78 208.5q0 90 41 157t117.5 111 185 65.5 244.5 21.5v43q0 90-42 131t-141 41q-68 0-150.5-18.5t-158.5-49.5l-41 199q92 31 192.5 50t188.5 19q117 0 197-23.5t128-69.5 68.5-111.5 20.5-153.5v-420q0-68 2-135.5t6-126.5h-250zm141 1475q0-63-17.5-120t-52-101-89-68.5-125.5-24.5q-72 0-125.5 25.5t-87 68.5-49 99.5-15.5 120.5h170q0-55 28.5-90t80.5-35q51 0 80.5 31.5t29.5 93.5h172z"/><glyph unicode="Ą" horiz-adv-x="1282" d="M686 938q-16 53-30.5 105.5t-24.5 101.5h-4q-10-49-24.5-102.5t-29.5-102.5l-143-434h399zm668-1321q-57-51-125-76.5t-144-25.5q-119 0-187.5 55t-68.5 154q0 72 39 143.5t115 132.5l-94 295h-520l-97-295h-268l463 1382h346l465-1382q-111-49-157-106.5t-46-116.5q0-68 72-68 63 0 133 49z"/><glyph unicode="ą" horiz-adv-x="1073" d="M666 453q-96 0-162-11.5t-104-32-54-48-16-62.5q0-51 33.5-85t89.5-34q45 0 85 20.5t68.5 55.5 44 78 15.5 88v31zm387-836q-57-51-125-76.5t-144-25.5q-117 0-185.5 55t-68.5 154q0 82 43 155.5t132 140.5q-12 96-11 146h-2q-43-84-128-135t-195-51q-135 0-213 81.5t-78 208.5q0 90 41 157t117.5 111 185 65.5 244.5 21.5v43q0 90-42 131t-141 41q-68 0-150.5-18.5t-158.5-49.5l-41 199q92 31 192.5 50t188.5 19q117 0 197-23.5t128-69.5 68.5-111.5 20.5-153.5v-346q0-96 6-181t18-155q-96-57-137-113.5t-41-109.5q0-33 18.5-50.5t53.5-17.5q33 0 66.5 12.5t68.5 36.5z"/><glyph unicode="Ć" horiz-adv-x="1159" d="M1077 47q-78-31-172-47t-188-16q-174 0-298 53t-199 146-108.5 211-33.5 253q0 166 43 303t130 236.5 218 154 301 54.5q76 0 153.5-10.5t141.5-30.5l-37-246q-125 49-270 49-96 0-169-33.5t-121-96-72.5-147.5-24.5-188q0-229 98-349t301-120q63 0 137 16.5t129 43.5zm-498 1419l-43 144 426 153 59-188z"/><glyph unicode="ć" horiz-adv-x="870" d="M815 29q-59-23-135-35t-152-12q-106 0-191 28.5t-144.5 88-91 153.5-31.5 223q0 119 31.5 221.5t95 178 161 118.5 230.5 43q59 0 116.5-9t106.5-26l-41-225q-41 16-90 27.5t-100 11.5q-117 0-176.5-86t-59.5-227q0-66 12.5-120t41-93 73.5-60.5 111-21.5q106 0 198 41l35-219zm-348 1114l-119 125 307 295 144-154z"/><glyph unicode="Č" horiz-adv-x="1159" d="M1077 47q-78-31-172-47t-188-16q-174 0-298 53t-199 146-108.5 211-33.5 253q0 166 43 303t130 236.5 218 154 301 54.5q76 0 153.5-10.5t141.5-30.5l-37-246q-125 49-270 49-96 0-169-33.5t-121-96-72.5-147.5-24.5-188q0-229 98-349t301-120q63 0 137 16.5t129 43.5zm-385 1417l-336 168 64 140 276-113 281 113 59-132z"/><glyph unicode="č" horiz-adv-x="870" d="M815 29q-59-23-135-35t-152-12q-106 0-191 28.5t-144.5 88-91 153.5-31.5 223q0 119 31.5 221.5t95 178 161 118.5 230.5 43q59 0 116.5-9t106.5-26l-41-225q-41 16-90 27.5t-100 11.5q-117 0-176.5-86t-59.5-227q0-66 12.5-120t41-93 73.5-60.5 111-21.5q106 0 198 41l35-219zm-297 1118l-311 274 103 123 213-168 215 168 98-121z"/><glyph unicode="Ď" horiz-adv-x="1366" d="M1004 694q0 115-24 202t-75 147.5-134 92-200 31.5q-47 0-88-2t-73-4v-932q29-4 67.5-7t77.5-3q98 0 180 28.5t142.5 87 93.5 148.5 33 211zm286 21q0-174-54-310.5t-155.5-227.5-242-138-310.5-47q-90 0-201.5 4t-183.5 6v1378q119 4 226.5 7.5t220.5 3.5q164 0 293-38t220-120 139-211 48-307zm-694 749l-336 168 64 140 276-113 281 113 59-132z"/><glyph unicode="ď" horiz-adv-x="1251" d="M741 813q-37 8-70.5 12t-66.5 4q-119 0-187.5-82.5t-68.5-263.5q0-289 174-288 49 0 90 26.5t70 73.5 44 107.5 15 125.5v285zm17-813q0 39 3 84t9 86h-4q-43-88-127-140.5t-195-52.5q-182 0-276 127t-94 351q0 129 36.5 235.5t106.5 184 170 119.5 225 42q35 0 66-2t63-6v467h260v-1495h-243zm485 1133l-170 36 103 420 209-45z"/><glyph unicode="Đ" horiz-adv-x="1384" d="M1022 694q0 115-23.5 202t-76 147.5-135 92-199.5 31.5q-47 0-88-2t-74-4v-352h250v-203h-250v-377q29-4 67.5-7t77.5-3q100 0 182.5 28.5t142.5 87 93 148.5 33 211zm287 21q0-172-53.5-307.5t-152.5-227.5-240.5-140-315.5-48q-90 0-202 4t-183 6v604h-154v203h154v571q119 4 227.5 7.5t220.5 3.5q164 0 292-38t219-120 139.5-211 48.5-307z"/><glyph unicode="đ" horiz-adv-x="1144" d="M741 813q-37 8-70.5 12t-66.5 4q-119 0-187.5-82.5t-68.5-263.5q0-289 174-288 49 0 90 26.5t70 73.5 44 107.5 15 125.5v285zm260 379v-1192h-243q0 39 3 84t9 86h-4q-43-88-127-140.5t-195-52.5q-182 0-276 127t-94 351q0 129 36.5 235.5t106.5 184 170 119.5 225 42q35 0 66-2t63-6v164h-215v166h215v137h260v-137h125v-166h-125z"/><glyph unicode="Ē" horiz-adv-x="1044" d="M143 0v1382h783v-223h-516v-340h473v-217h-473v-373h516v-229h-783zm80 1518v165h600v-165h-600z"/><glyph unicode="ē" horiz-adv-x="1052" d="M715 629q2 104-45 160.5t-131 56.5q-82 0-137.5-57.5t-63.5-159.5h377zm260-23q0-49-3-92t-5-61h-631q0-270 270-271 147 0 307 54l27-195q-86-29-181-45t-184-16q-248 0-376.5 128t-128.5 392q0 115 32.5 213t96 171.5 153.5 113.5 201 40q109 0 189.5-32.5t132-91 76-137.5 24.5-171zm-713 623v188h553v-188h-553z"/><glyph unicode="Ė" horiz-adv-x="1044" d="M143 0v1382h783v-223h-516v-340h473v-217h-473v-373h516v-229h-783zm541 1626q0-66-46-112t-109-46q-66 0-112 46.5t-46 111.5q0 63 46 109.5t112 46.5 110.5-45 44.5-111z"/><glyph unicode="ė" horiz-adv-x="1052" d="M715 629q2 104-45 160.5t-131 56.5q-82 0-137.5-57.5t-63.5-159.5h377zm260-23q0-49-3-92t-5-61h-631q0-270 270-271 147 0 307 54l27-195q-86-29-181-45t-184-16q-248 0-376.5 128t-128.5 392q0 115 32.5 213t96 171.5 153.5 113.5 201 40q109 0 189.5-32.5t132-91 76-137.5 24.5-171zm-273 731q0-66-45-111t-110-45q-66 0-112 45.5t-46 110.5q0 66 46 112t112 46 110.5-46 44.5-112z"/><glyph unicode="Ę" horiz-adv-x="1044" d="M985-383q-57-51-124.5-76.5t-143.5-25.5q-117 0-185.5 55t-68.5 154q0 76 44 152.5t118 123.5h-482v1382h783v-223h-516v-340h473v-217h-473v-373h516v-223q-100-29-159.5-97.5t-59.5-131.5q0-33 19-50.5t54-17.5q63 0 133 49z"/><glyph unicode="ę" horiz-adv-x="1052" d="M715 629q2 104-45 160.5t-131 56.5q-82 0-137.5-57.5t-63.5-159.5h377zm254-1012q-57-51-125-76.5t-142-25.5q-119 0-187.5 55t-68.5 154q0 68 36 138t106 128q-12-2-27.5-4t-30.5-2q-92 0-173 25.5t-146.5 85-103 160.5-37.5 245q0 115 32.5 213t96 171.5 153.5 113.5 201 40q109 0 189.5-32.5t132-91 76-137.5 24.5-171q0-45-3-89t-5-64h-631q0-270 270-271 74 0 151 13.5t156 40.5l27-193q-55-20-101-51t-79-67-51.5-73.5-18.5-74.5q0-33 19.5-50.5t54.5-17.5q63 0 133 49z"/><glyph unicode="Ě" horiz-adv-x="1044" d="M143 0v1382h783v-223h-516v-340h473v-217h-473v-373h516v-229h-783zm377 1464l-336 168 64 140 276-113 281 113 59-132z"/><glyph unicode="ě" horiz-adv-x="1052" d="M715 629q2 104-45 160.5t-131 56.5q-82 0-137.5-57.5t-63.5-159.5h377zm260-23q0-49-3-92t-5-61h-631q0-270 270-271 147 0 307 54l27-195q-86-29-181-45t-184-16q-248 0-376.5 128t-128.5 392q0 115 32.5 213t96 171.5 153.5 113.5 201 40q109 0 189.5-32.5t132-91 76-137.5 24.5-171zm-435 541l-311 274 103 123 213-168 215 168 98-121z"/><glyph unicode="Ğ" horiz-adv-x="1382" d="M1245 66q-102-41-225-63.5t-248-22.5q-168 0-299 46t-220 134-134 212-45 277q0 168 50 307.5t147.5 238.5 241.5 153.5 329 54.5q102 0 202.5-16.5t188.5-43.5l-53-243q-160 66-355 65-119 0-208-36.5t-145-103.5-83-154-27-187q0-221 114-343t327-122q96 0 176 25v481h266v-659zm-155 1693q0-57-18.5-108.5t-56.5-89-93-59-125-21.5-124 21.5-91 60.5-55.5 89-18.5 107h156q0-49 39-83t96-34q61 0 98 33t37 84h156z"/><glyph unicode="ğ" horiz-adv-x="1105" d="M930 813q23-57 22-119 0-84-27.5-152.5t-82-119.5-136-79-192.5-28h-36.5l-35.5 2q-37-29-36-61 0-29 27.5-44t117.5-19l143-5q178-6 269.5-80.5t91.5-222.5q0-84-38-156.5t-109.5-127-173-85-230.5-30.5q-207 0-327 74.5t-120 222.5q0 78 45 144.5t117 111.5q-88 51-88 151 0 119 121 187-80 47-117 119.5t-37 160.5q0 80 28 151t82 122 136 80.5 193 29.5q88 0 165-22h342v-205h-114zm-508-821v-2q-49-33-73.5-74t-24.5-82q0-72 58-112.5t163-40.5q127 0 188.5 49t61.5 120q0 55-38 92.5t-136 41.5l-156 4zm280 682q0 78-46 127t-132 49-132-49-46-127 46-127 132-49 132 49 46 127zm127 801q0-63-17.5-120t-52-101-89-68.5-125.5-24.5q-72 0-125.5 25.5t-87 68.5-49 99.5-15.5 120.5h170q0-55 28.5-90t80.5-35q51 0 80.5 31.5t29.5 93.5h172z"/><glyph unicode="Ģ" horiz-adv-x="1382" d="M1245 66q-102-41-225-63.5t-248-22.5q-168 0-299 46t-220 134-134 212-45 277q0 168 50 307.5t147.5 238.5 241.5 153.5 329 54.5q102 0 202.5-16.5t188.5-43.5l-53-243q-160 66-355 65-119 0-208-36.5t-145-103.5-83-154-27-187q0-221 114-343t327-122q96 0 176 25v481h266v-659zm-461-162q55 0 90-37t35-98q0-39-16-77t-50-73-88.5-64.5-133.5-50.5l-41 95q59 33 79.5 57.5t20.5 52.5q0 23-8 42.5t-8 37.5q0 47 32.5 81t87.5 34z"/><glyph unicode="ģ" horiz-adv-x="1105" d="M930 813q23-57 22-119 0-84-27.5-152.5t-82-119.5-136-79-192.5-28h-36.5l-35.5 2q-37-29-36-61 0-29 27.5-44t117.5-19l143-5q178-6 269.5-80.5t91.5-222.5q0-84-38-156.5t-109.5-127-173-85-230.5-30.5q-207 0-327 74.5t-120 222.5q0 78 45 144.5t117 111.5q-88 51-88 151 0 119 121 187-80 47-117 119.5t-37 160.5q0 80 28 151t82 122 136 80.5 193 29.5q88 0 165-22h342v-205h-114zm-508-821v-2q-49-33-73.5-74t-24.5-82q0-72 58-112.5t163-40.5q127 0 188.5 49t61.5 120q0 55-38 92.5t-136 41.5l-156 4zm280 682q0 78-46 127t-132 49-132-49-46-127 46-127 132-49 132 49 46 127zm-188 475q-59 0-94 48t-26.5 116.5 78 134 206.5 100.5l43-94q-80-41-95.5-76t1.5-73q20-59-12.5-107.5t-100.5-48.5z"/><glyph unicode="Ī" horiz-adv-x="552" d="M143 0v1382h267v-1382h-267zm-166 1518v165h600v-165h-600z"/><glyph unicode="ī" horiz-adv-x="544" d="M141 0v1018h262v-1018h-262zm-127 1229v188h523v-188h-523z"/><glyph unicode="Į" horiz-adv-x="552" d="M532-383q-57-51-124.5-76.5t-143.5-25.5q-117 0-185.5 55t-68.5 154q0 74 35 141t98 137v1380h267v-1382q-84-59-120-115.5t-36-107.5q0-33 18.5-50.5t53.5-17.5q33 0 66.5 12.5t68.5 36.5z"/><glyph unicode="į" horiz-adv-x="544" d="M528-383q-57-51-124.5-76.5t-141.5-25.5q-119 0-187.5 55t-68.5 154q0 74 35 142t100 136v1016h262v-1018q-82-59-117.5-116.5t-35.5-106.5q0-33 19.5-50.5t54.5-17.5q33 0 65.5 12.5t67.5 36.5zm-92 1710q0-66-48-112t-116-46-114.5 46.5-46.5 111.5q0 66 47 113t114 47q68 0 116-46t48-114z"/><glyph unicode="İ" horiz-adv-x="552" d="M143 0v1382h267v-1382h-267zm293 1626q0-66-46-112t-109-46q-66 0-112 46.5t-46 111.5q0 63 46 109.5t112 46.5 110.5-45 44.5-111z"/><glyph unicode="ı" horiz-adv-x="544" d="M141 0v1018h262v-1018h-262z"/><glyph unicode="Ķ" horiz-adv-x="1222" d="M854 0l-444 664v-664h-267v1382h267v-626l446 626h324l-506-663 530-719h-350zm-238-96q55 0 90-37t35-98q0-39-16-77t-50-73-88.5-64.5-133.5-50.5l-41 95q59 33 79.5 57.5t20.5 52.5q0 23-8 42.5t-8 37.5q0 47 32.5 81t87.5 34z"/><glyph unicode="ķ" horiz-adv-x="1071" d="M719 0l-316 504v-504h-262v1495h262v-901l297 424h308l-351-455 390-563h-328zm-169-96q55 0 90-37t35-98q0-39-16-77t-50-73-88.5-64.5-133.5-50.5l-41 95q59 33 79.5 57.5t20.5 52.5q0 23-8 42.5t-8 37.5q0 47 32.5 81t87.5 34z"/><glyph unicode="Ĺ" horiz-adv-x="878" d="M143 0v1382h267v-1151h448v-231h-715zm111 1466l-43 144 426 153 59-188z"/><glyph unicode="ĺ" horiz-adv-x="544" d="M141 0v1495h262v-1495h-262zm37 1589l-43 144 426 153 59-188z"/><glyph unicode="Ļ" horiz-adv-x="878" d="M143 0v1382h267v-1151h448v-231h-715zm373-96q55 0 90-37t35-98q0-39-16-77t-50-73-88.5-64.5-133.5-50.5l-41 95q59 33 79.5 57.5t20.5 52.5q0 23-8 42.5t-8 37.5q0 47 32.5 81t87.5 34z"/><glyph unicode="ļ" horiz-adv-x="544" d="M141 0v1495h262v-1495h-262zm139-96q55 0 90-37t35-98q0-39-16-77t-50-73-88.5-64.5-133.5-50.5l-41 95q59 33 79.5 57.5t20.5 52.5q0 23-8 42.5t-8 37.5q0 47 32.5 81t87.5 34z"/><glyph unicode="Ľ" horiz-adv-x="888" d="M143 0v1382h267v-1151h448v-231h-715zm519 1204l-152 82 213 375 189-98z"/><glyph unicode="ľ" horiz-adv-x="653" d="M141 0v1495h262v-1495h-262zm504 1133l-170 36 103 420 209-45z"/><glyph unicode="Ł" horiz-adv-x="897" d="M162 0v645l-135-63-47 206 182 84v510h266v-385l201 93 49-207-250-113v-539h449v-231h-715z"/><glyph unicode="ł" horiz-adv-x="614" d="M440 805v-805h-262v668l-104-60-51 195 155 86v606h262v-469l111 64 53-195z"/><glyph unicode="Ń" horiz-adv-x="1413" d="M1012 0h-23l-434 700q-94 156-121.5 210.5t-54.5 117.5q4-47 7-108.5t6-132 6-169 3-241.5v-377h-258v1382h314l405-655q94-154 116.5-199t53.5-114q-4 63-9 168.5t-7 174-3 134-1 156.5v335h258v-1382h-258zm-365 1466l-43 144 426 153 59-188z"/><glyph unicode="ń" horiz-adv-x="1169" d="M766 0v651q0 84-28.5 126t-98.5 42q-49 0-92-25.5t-75-71.5-50.5-105.5-18.5-124.5v-492h-262v1018h248q0-41-4-93.5t-10-88.5h2q47 92 136 147t210 55q84 0 142.5-24.5t94-68.5 51-102.5 15.5-127.5v-715h-260zm-170 1143l-119 125 307 295 144-154z"/><glyph unicode="Ņ" horiz-adv-x="1413" d="M1012 0h-23l-434 700q-94 156-121.5 210.5t-54.5 117.5q4-47 7-108.5t6-132 6-169 3-241.5v-377h-258v1382h314l405-655q94-154 116.5-199t53.5-114q-4 63-9 168.5t-7 174-3 134-1 156.5v335h258v-1382h-258zm-300-96q55 0 90-37t35-98q0-39-16-77t-50-73-88.5-64.5-133.5-50.5l-41 95q59 33 79.5 57.5t20.5 52.5q0 23-8 42.5t-8 37.5q0 47 32.5 81t87.5 34z"/><glyph unicode="ņ" horiz-adv-x="1169" d="M766 0v651q0 84-28.5 126t-98.5 42q-49 0-92-25.5t-75-71.5-50.5-105.5-18.5-124.5v-492h-262v1018h248q0-41-4-93.5t-10-88.5h2q47 92 136 147t210 55q84 0 142.5-24.5t94-68.5 51-102.5 15.5-127.5v-715h-260zm-172-96q55 0 90-37t35-98q0-39-16-77t-50-73-88.5-64.5-133.5-50.5l-41 95q59 33 79.5 57.5t20.5 52.5q0 23-8 42.5t-8 37.5q0 47 32.5 81t87.5 34z"/><glyph unicode="Ň" horiz-adv-x="1413" d="M1012 0h-23l-434 700q-94 156-121.5 210.5t-54.5 117.5q4-47 7-108.5t6-132 6-169 3-241.5v-377h-258v1382h314l405-655q94-154 116.5-199t53.5-114q-4 63-9 168.5t-7 174-3 134-1 156.5v335h258v-1382h-258zm-303 1464l-336 168 64 140 276-113 281 113 59-132z"/><glyph unicode="ň" horiz-adv-x="1169" d="M766 0v651q0 84-28.5 126t-98.5 42q-49 0-92-25.5t-75-71.5-50.5-105.5-18.5-124.5v-492h-262v1018h248q0-41-4-93.5t-10-88.5h2q47 92 136 147t210 55q84 0 142.5-24.5t94-68.5 51-102.5 15.5-127.5v-715h-260zm-191 1147l-311 274 103 123 213-168 215 168 98-121z"/><glyph unicode="Ō" horiz-adv-x="1460" d="M1102 686q0 225-94.5 352t-278.5 127q-82 0-149.5-30.5t-117.5-90-77-147.5-27-199q0-113 24-201.5t70-151 115.5-95.5 161.5-33q82 0 150.5 31t118 90 77 147 27.5 201zm284 31q0-174-53-313.5t-146-234.5-216-143.5-262-48.5q-154 0-274 46.5t-199.5 135.5-120.5 216-41 291q0 174 53 313t146.5 234.5 216 143.5 262.5 48q154 0 273.5-46t199.5-135 120.5-216 40.5-291zm-952 801v165h600v-165h-600z"/><glyph unicode="ō" horiz-adv-x="1132" d="M795 508q0 150-59.5 229.5t-166.5 79.5q-53 0-96-19.5t-72.5-58.5-46-96-16.5-133q0-307 227-307 104 0 167 76.5t63 228.5zm270 24q0-119-35-219t-101.5-176-163.5-116.5-218-40.5q-111 0-199 30.5t-150.5 93-96 157.5-33.5 224q0 119 34.5 219.5t101 176 164 116.5 218.5 41q231 0 355-129t124-377zm-762 697v188h553v-188h-553z"/><glyph unicode="Ő" horiz-adv-x="1460" d="M1102 686q0 225-94.5 352t-278.5 127q-82 0-149.5-30.5t-117.5-90-77-147.5-27-199q0-113 24-201.5t70-151 115.5-95.5 161.5-33q82 0 150.5 31t118 90 77 147 27.5 201zm284 31q0-174-53-313.5t-146-234.5-216-143.5-262-48.5q-154 0-274 46.5t-199.5 135.5-120.5 216-41 291q0 174 53 313t146.5 234.5 216 143.5 262.5 48q154 0 273.5-46t199.5-135 120.5-216 40.5-291zm-827 745l-121 105 260 305 150-129zm393-2l-117 109 297 289 140-138z"/><glyph unicode="ő" horiz-adv-x="1132" d="M795 508q0 150-59.5 229.5t-166.5 79.5q-53 0-96-19.5t-72.5-58.5-46-96-16.5-133q0-307 227-307 104 0 167 76.5t63 228.5zm270 24q0-119-35-219t-101.5-176-163.5-116.5-218-40.5q-111 0-199 30.5t-150.5 93-96 157.5-33.5 224q0 119 34.5 219.5t101 176 164 116.5 218.5 41q231 0 355-129t124-377zm-655 615l-123 104 264 318 152-127zm387 0l-115 104 293 301 142-137z"/><glyph unicode="Œ" horiz-adv-x="1783" d="M920 1141q-39 12-90.5 18t-100.5 6q-82 0-150.5-30.5t-117.5-90-77-147.5-28-199q0-113 23.5-201.5t71-151 117-95.5 161.5-33q43 0 95.5 7t95.5 18v899zm30-1141q-117-23-241-23-154 0-274 46.5t-199.5 135.5-120.5 216-41 291q0 174 53 313t146.5 234.5 216 143.5 262.5 48q57 0 118.5-6t114.5-17h684v-223h-483v-340h461v-217h-461v-373h483v-229h-719z"/><glyph unicode="œ" horiz-adv-x="1761" d="M795 508q0 150-59.5 229.5t-166.5 79.5q-53 0-96-19.5t-72.5-58.5-46-96-16.5-133q0-307 227-307 104 0 167 76.5t63 228.5zm628 125q2 102-45 157.5t-131 55.5q-82 0-136-57.5t-64-155.5h376zm258-27q0-45-2-87t-4-60h-631q-4-276 269-277 76 0 152.5 13.5t154.5 40.5l29-195q-86-29-181.5-45t-183.5-16q-141 0-234.5 40.5t-146.5 120.5q-51-74-145-117.5t-211-43.5q-111 0-199 30.5t-150.5 93-96 157.5-33.5 224q0 119 34.5 219.5t101 176 164 116.5 218.5 41q115 0 203-36.5t145-114.5q47 70 132 110.5t196 40.5q109 0 188.5-32.5t130.5-91 75.5-137.5 24.5-171z"/><glyph unicode="Ŕ" horiz-adv-x="1177" d="M780 967q0 207-250 207-35 0-69.5-2.5t-50.5-4.5v-409q14 0 46.5-1t65.5-1q123 0 190.5 55.5t67.5 155.5zm51-967l-348 557h-73v-557h-267v1382q47 2 159 5.5t247 3.5q121 0 215-24t160.5-72 101.5-123.5 35-180.5q0-80-23.5-145.5t-65.5-113.5-98.5-81-123.5-49q14-18 45.5-60t60.5-89l299-453h-324zm-381 1466l-43 144 426 153 59-188z"/><glyph unicode="ŕ" horiz-adv-x="727" d="M686 782q-283 55-283-366v-416h-262v1018h248q0-41-5-97.5t-13-107.5h4q20 51 48 94t67.5 75 92 47 115.5 9zm-282 361l-119 125 307 295 144-154z"/><glyph unicode="Ŗ" horiz-adv-x="1177" d="M780 967q0 207-250 207-35 0-69.5-2.5t-50.5-4.5v-409q14 0 46.5-1t65.5-1q123 0 190.5 55.5t67.5 155.5zm51-967l-348 557h-73v-557h-267v1382q47 2 159 5.5t247 3.5q121 0 215-24t160.5-72 101.5-123.5 35-180.5q0-80-23.5-145.5t-65.5-113.5-98.5-81-123.5-49q14-18 45.5-60t60.5-89l299-453h-324zm-237-96q55 0 90-37t35-98q0-39-16-77t-50-73-88.5-64.5-133.5-50.5l-41 95q59 33 79.5 57.5t20.5 52.5q0 23-8 42.5t-8 37.5q0 47 32.5 81t87.5 34z"/><glyph unicode="ŗ" horiz-adv-x="727" d="M686 782q-283 55-283-366v-416h-262v1018h248q0-41-5-97.5t-13-107.5h4q20 51 48 94t67.5 75 92 47 115.5 9zm-387-878q55 0 90-37t35-98q0-39-16-77t-50-73-88.5-64.5-133.5-50.5l-41 95q59 33 79.5 57.5t20.5 52.5q0 23-8 42.5t-8 37.5q0 47 32.5 81t87.5 34z"/><glyph unicode="Ř" horiz-adv-x="1177" d="M780 967q0 207-250 207-35 0-69.5-2.5t-50.5-4.5v-409q14 0 46.5-1t65.5-1q123 0 190.5 55.5t67.5 155.5zm51-967l-348 557h-73v-557h-267v1382q47 2 159 5.5t247 3.5q121 0 215-24t160.5-72 101.5-123.5 35-180.5q0-80-23.5-145.5t-65.5-113.5-98.5-81-123.5-49q14-18 45.5-60t60.5-89l299-453h-324zm-288 1464l-336 168 64 140 276-113 281 113 59-132z"/><glyph unicode="ř" horiz-adv-x="727" d="M686 782q-283 55-283-366v-416h-262v1018h248q0-41-5-97.5t-13-107.5h4q20 51 48 94t67.5 75 92 47 115.5 9zm-269 365l-311 274 103 123 213-168 215 168 98-121z"/><glyph unicode="Ś" horiz-adv-x="1030" d="M956 408q0-94-34.5-173t-103-136.5-169-89.5-227.5-32q-170 0-322 37l29 256q70-29 150.5-45t156.5-16q51 0 94 10t75 30.5 49.5 53.5 17.5 78q0 61-39 101t-118 76-152.5 67.5-136 77-103.5 117-41 177.5q0 90 35 165t102.5 129.5 164.5 84 220 29.5q57 0 125-7t125-20l-25-233q-57 18-118.5 28.5t-122.5 10.5q-113 0-170.5-42t-57.5-118q0-57 40-97t117-75 154-68.5 140-79 104-118 41-178.5zm-526 1058l-43 144 426 153 59-188z"/><glyph unicode="ś" horiz-adv-x="854" d="M774 311q0-72-27.5-132t-84-105-139.5-69.5-191-24.5q-61 0-123 7t-111 19l15 217q47-18 110.5-29.5t120.5-11.5q76 0 117 28t41 77q0 41-28 66.5t-78 46-107.5 43-102.5 55-73.5 88-28.5 135.5q0 68 26.5 125t80 101 134.5 68.5 187 24.5q43 0 91-5t97-13l-14-207q-45 12-92 20.5t-94 8.5q-72 0-110-26.5t-38-72.5q0-39 28-64.5t79-46 109.5-45 103.5-58 73.5-87 28.5-133.5zm-393 832l-119 125 307 295 144-154z"/><glyph unicode="Ş" horiz-adv-x="1030" d="M956 408q0-94-34.5-173t-103-136.5-169-89.5-227.5-32q-170 0-322 37l29 256q70-29 150.5-45t156.5-16q51 0 94 10t75 30.5 49.5 53.5 17.5 78q0 61-39 101t-118 76-152.5 67.5-136 77-103.5 117-41 177.5q0 90 35 165t102.5 129.5 164.5 84 220 29.5q57 0 125-7t125-20l-25-233q-57 18-118.5 28.5t-122.5 10.5q-113 0-170.5-42t-57.5-118q0-57 40-97t117-75 154-68.5 140-79 104-118 41-178.5zm-370-490q76-104 62.5-204.5t-103.5-192.5h-199q78 92 86 166.5t-63 162.5z"/><glyph unicode="ş" horiz-adv-x="854" d="M774 311q0-72-27.5-132t-84-105-139.5-69.5-191-24.5q-61 0-123 7t-111 19l15 217q47-18 110.5-29.5t120.5-11.5q76 0 117 28t41 77q0 41-28 66.5t-78 46-107.5 43-102.5 55-73.5 88-28.5 135.5q0 68 26.5 125t80 101 134.5 68.5 187 24.5q43 0 91-5t97-13l-14-207q-45 12-92 20.5t-94 8.5q-72 0-110-26.5t-38-72.5q0-39 28-64.5t79-46 109.5-45 103.5-58 73.5-87 28.5-133.5zm-262-393q76-104 62.5-204.5t-103.5-192.5h-199q78 92 86 166.5t-63 162.5z"/><glyph unicode="Š" horiz-adv-x="1030" d="M956 408q0-94-34.5-173t-103-136.5-169-89.5-227.5-32q-170 0-322 37l29 256q70-29 150.5-45t156.5-16q51 0 94 10t75 30.5 49.5 53.5 17.5 78q0 61-39 101t-118 76-152.5 67.5-136 77-103.5 117-41 177.5q0 90 35 165t102.5 129.5 164.5 84 220 29.5q57 0 125-7t125-20l-25-233q-57 18-118.5 28.5t-122.5 10.5q-113 0-170.5-42t-57.5-118q0-57 40-97t117-75 154-68.5 140-79 104-118 41-178.5zm-440 1056l-336 168 64 140 276-113 281 113 59-132z"/><glyph unicode="š" horiz-adv-x="854" d="M774 311q0-72-27.5-132t-84-105-139.5-69.5-191-24.5q-61 0-123 7t-111 19l15 217q47-18 110.5-29.5t120.5-11.5q76 0 117 28t41 77q0 41-28 66.5t-78 46-107.5 43-102.5 55-73.5 88-28.5 135.5q0 68 26.5 125t80 101 134.5 68.5 187 24.5q43 0 91-5t97-13l-14-207q-45 12-92 20.5t-94 8.5q-72 0-110-26.5t-38-72.5q0-39 28-64.5t79-46 109.5-45 103.5-58 73.5-87 28.5-133.5zm-344 836l-311 274 103 123 213-168 215 168 98-121z"/><glyph unicode="Ţ" horiz-adv-x="1044" d="M655 1155v-1155h-266v1155h-358v227h983v-227h-359zm-40-1237q76-104 62.5-204.5t-103.5-192.5h-199q78 92 86 166.5t-63 162.5z"/><glyph unicode="ţ" horiz-adv-x="768" d="M707 8q-51-12-110.5-20t-107.5-8q-86 0-143 17t-91 54-49.5 98.5-15.5 155.5v510h-174v203h174v313l263 70v-383h243v-203h-243v-461q0-90 24.5-122.5t89.5-32.5q59 0 121 14zm-178-90q76-104 62.5-204.5t-103.5-192.5h-199q78 92 86 166.5t-63 162.5z"/><glyph unicode="Ť" horiz-adv-x="1044" d="M655 1155v-1155h-266v1155h-358v227h983v-227h-359zm-139 309l-336 168 64 140 276-113 281 113 59-132z"/><glyph unicode="ť" horiz-adv-x="776" d="M707 8q-51-12-110.5-20t-107.5-8q-86 0-143 17t-91 54-49.5 98.5-15.5 155.5v510h-174v203h174v313l263 70v-383h243v-203h-243v-461q0-90 24.5-122.5t89.5-32.5q59 0 121 14zm-5 1125l-170 36 103 420 209-45z"/><glyph unicode="Ū" horiz-adv-x="1394" d="M1251 537q0-281-147.5-420.5t-425.5-139.5q-158 0-263.5 40t-165 109-83 157-23.5 196v903h267v-886q0-70 13-123.5t45-92 88-60 140-21.5q156 0 223.5 73.5t67.5 247.5v862h264v-845zm-852 981v165h600v-165h-600z"/><glyph unicode="ū" horiz-adv-x="1167" d="M780 0q0 47 3 97t10 85h-2q-49-94-137.5-148t-209.5-54q-84 0-142 24.5t-94 68.5-51.5 102-15.5 128v715h260v-651q0-84 29-126t98-42q49 0 92.5 25.5t76 71.5 50 105.5 17.5 124.5v492h262v-1018h-246zm-473 1229v188h553v-188h-553z"/><glyph unicode="Ů" horiz-adv-x="1394" d="M1251 537q0-281-147.5-420.5t-425.5-139.5q-158 0-263.5 40t-165 109-83 157-23.5 196v903h267v-886q0-70 13-123.5t45-92 88-60 140-21.5q156 0 223.5 73.5t67.5 247.5v862h264v-845zm-280 1132q0-111-79-178.5t-204-67.5q-127 0-195.5 57.5t-68.5 169.5q0 111 80 178.5t205 67.5 193.5-57 68.5-170zm-176-10q0 109-96 108-43 0-70-27.5t-27-78.5q0-109 95-109 43 0 70.5 28t27.5 79z"/><glyph unicode="ů" horiz-adv-x="1167" d="M780 0q0 47 3 97t10 85h-2q-49-94-137.5-148t-209.5-54q-84 0-142 24.5t-94 68.5-51.5 102-15.5 128v715h260v-651q0-84 29-126t98-42q49 0 92.5 25.5t76 71.5 50 105.5 17.5 124.5v492h262v-1018h-246zm70 1368q0-115-78-186.5t-201-71.5q-125 0-191.5 59.5t-66.5 178.5q0 55 20.5 102t58.5 82 89 53.5 113 18.5q125 0 190.5-59.5t65.5-176.5zm-172-12q0 59-23.5 85.5t-71.5 26.5q-43 0-70.5-28.5t-27.5-81.5q0-113 96-113 43 0 70 29t27 82z"/><glyph unicode="Ű" horiz-adv-x="1394" d="M1251 537q0-281-147.5-420.5t-425.5-139.5q-158 0-263.5 40t-165 109-83 157-23.5 196v903h267v-886q0-70 13-123.5t45-92 88-60 140-21.5q156 0 223.5 73.5t67.5 247.5v862h264v-845zm-749 925l-121 105 260 305 150-129zm393-2l-117 109 297 289 140-138z"/><glyph unicode="ű" horiz-adv-x="1167" d="M780 0q0 47 3 97t10 85h-2q-49-94-137.5-148t-209.5-54q-84 0-142 24.5t-94 68.5-51.5 102-15.5 128v715h260v-651q0-84 29-126t98-42q49 0 92.5 25.5t76 71.5 50 105.5 17.5 124.5v492h262v-1018h-246zm-370 1147l-123 104 264 318 152-127zm387 0l-115 104 293 301 142-137z"/><glyph unicode="Ų" horiz-adv-x="1394" d="M1251 537q0-274-145-420-47-47-109.5-88t-119.5-99q-78-78-78-153 0-68 73-68 61 0 134 49l71-141q-59-53-126.5-77.5t-139.5-24.5q-117 0-186.5 54t-69.5 155q0 70 37 137t108 121q-10-2-21-2h-22q-154 0-253 39.5t-157.5 108.5-81 160-22.5 191v903h267v-886q0-66 12-120t45-94 88-61.5 141-21.5q154 0 222.5 72.5t68.5 248.5v862h264v-845z"/><glyph unicode="ų" horiz-adv-x="1167" d="M1149-383q-57-51-125-76.5t-141-25.5q-119 0-187.5 55t-68.5 154q0 82 44 154.5t130 141.5q-4 37-7 79t-1 75h-2q-53-90-139.5-142t-207.5-52q-84 0-142 24.5t-94 68.5-51.5 102-15.5 128v715h260v-651q0-84 29-126t98-42q49 0 92.5 25.5t76 71.5 50 105.5 17.5 124.5v492h262v-682q0-96 5-180t18-156q-96-57-137.5-113.5t-41.5-109.5q0-33 19.5-50.5t54.5-17.5q33 0 65.5 12.5t67.5 36.5z"/><glyph unicode="Ÿ" horiz-adv-x="1148" d="M707 510v-510h-267v508l-444 874h293l192-389q29-59 51.5-112.5t42.5-106.5h5q20 51 45.5 108.5t60.5 129.5l184 370h283zm235 1104q0-59-41-100t-100-41-100.5 40.5-41.5 100.5q0 59 41 100t101 41q59 0 100-41t41-100zm-442 0q0-59-41-100t-101-41q-59 0-100 40.5t-41 100.5q0 59 41 100t100 41 100.5-41 41.5-100z"/><glyph unicode="Ź" horiz-adv-x="1099" d="M92 0v205l498 811q31 47 49 74.5t41 56.5q-45-2-102.5-3t-149.5-1h-319v239h892v-215l-526-829q-27-41-37-58.5t-26-37.5q16 2 53 3t89 1h456v-246h-918zm360 1466l-43 144 426 153 59-188z"/><glyph unicode="ź" horiz-adv-x="921" d="M92 0v186l410 600q-33-2-90.5-3t-126.5-1h-181v236h713v-187l-401-593q29 2 88 2h321v-240h-733zm353 1143l-119 125 307 295 144-154z"/><glyph unicode="Ż" horiz-adv-x="1099" d="M92 0v205l498 811q31 47 49 74.5t41 56.5q-45-2-102.5-3t-149.5-1h-319v239h892v-215l-526-829q-27-41-37-58.5t-26-37.5q16 2 53 3t89 1h456v-246h-918zm616 1626q0-66-46-112t-109-46q-66 0-112 46.5t-46 111.5q0 63 46 109.5t112 46.5 110.5-45 44.5-111z"/><glyph unicode="ż" horiz-adv-x="921" d="M92 0v186l410 600q-33-2-90.5-3t-126.5-1h-181v236h713v-187l-401-593q29 2 88 2h321v-240h-733zm522 1325q0-66-45-111t-110-45q-66 0-112 45.5t-46 110.5q0 66 46 112t112 46 110.5-46 44.5-112z"/><glyph unicode="Ž" horiz-adv-x="1099" d="M92 0v205l498 811q31 47 49 74.5t41 56.5q-45-2-102.5-3t-149.5-1h-319v239h892v-215l-526-829q-27-41-37-58.5t-26-37.5q16 2 53 3t89 1h456v-246h-918zm459 1464l-336 168 64 140 276-113 281 113 59-132z"/><glyph unicode="ž" horiz-adv-x="921" d="M92 0v186l410 600q-33-2-90.5-3t-126.5-1h-181v236h713v-187l-401-593q29 2 88 2h321v-240h-733zm366 1147l-311 274 103 123 213-168 215 168 98-121z"/><glyph unicode="ƒ" horiz-adv-x="929" d="M473 215q-16-154-50-259.5t-88-170-133-94-188-29.5q-37 0-76.5 5t-74.5 14l39 227q33-12 65.5-19.5t65.5-7.5q43 0 71.5 13.5t48 44 33 84 21.5 135.5l49 506h-227v200h245l23 203q23 227 128 338t306 111q35 0 75-3.5t73-11.5l-29-215q-27 8-61.5 12.5t-65.5 4.5q-74 0-114-50.5t-52-167.5l-20-221h294v-200h-313z"/><glyph unicode="Ș" horiz-adv-x="1030" d="M956 408q0-94-34.5-173t-103-136.5-169-89.5-227.5-32q-170 0-322 37l29 256q70-29 150.5-45t156.5-16q51 0 94 10t75 30.5 49.5 53.5 17.5 78q0 61-39 101t-118 76-152.5 67.5-136 77-103.5 117-41 177.5q0 90 35 165t102.5 129.5 164.5 84 220 29.5q57 0 125-7t125-20l-25-233q-57 18-118.5 28.5t-122.5 10.5q-113 0-170.5-42t-57.5-118q0-57 40-97t117-75 154-68.5 140-79 104-118 41-178.5zm-440-504q55 0 90-37t35-98q0-39-16-77t-50-73-88.5-64.5-133.5-50.5l-41 95q59 33 79.5 57.5t20.5 52.5q0 23-8 42.5t-8 37.5q0 47 32.5 81t87.5 34z"/><glyph unicode="ș" horiz-adv-x="854" d="M774 311q0-72-27.5-132t-84-105-139.5-69.5-191-24.5q-61 0-123 7t-111 19l15 217q47-18 110.5-29.5t120.5-11.5q76 0 117 28t41 77q0 41-28 66.5t-78 46-107.5 43-102.5 55-73.5 88-28.5 135.5q0 68 26.5 125t80 101 134.5 68.5 187 24.5q43 0 91-5t97-13l-14-207q-45 12-92 20.5t-94 8.5q-72 0-110-26.5t-38-72.5q0-39 28-64.5t79-46 109.5-45 103.5-58 73.5-87 28.5-133.5zm-332-407q55 0 90-37t35-98q0-39-16-77t-50-73-88.5-64.5-133.5-50.5l-41 95q59 33 79.5 57.5t20.5 52.5q0 23-8 42.5t-8 37.5q0 47 32.5 81t87.5 34z"/><glyph unicode="Ț" horiz-adv-x="1044" d="M655 1155v-1155h-266v1155h-358v227h983v-227h-359zm-121-1251q55 0 90-37t35-98q0-39-16-77t-50-73-88.5-64.5-133.5-50.5l-41 95q59 33 79.5 57.5t20.5 52.5q0 23-8 42.5t-8 37.5q0 47 32.5 81t87.5 34z"/><glyph unicode="ț" horiz-adv-x="768" d="M707 8q-51-12-110.5-20t-107.5-8q-86 0-143 17t-91 54-49.5 98.5-15.5 155.5v510h-174v203h174v313l263 70v-383h243v-203h-243v-461q0-90 24.5-122.5t89.5-32.5q59 0 121 14zm-251-104q55 0 90-37t35-98q0-39-16-77t-50-73-88.5-64.5-133.5-50.5l-41 95q59 33 79.5 57.5t20.5 52.5q0 23-8 42.5t-8 37.5q0 47 32.5 81t87.5 34z"/><glyph unicode="ʼ" horiz-adv-x="225" d="M215 1530q63 0 104-49t40-130-54-185.5-178-215.5l-94 82q47 51 72.5 92t33.5 76 0 62.5-28 52.5q-27 31-31 67.5t11 69.5 46 55.5 78 22.5z"/><glyph unicode="ˆ" horiz-adv-x="894" d="M659 1147l-210 166-216-166-100 119 318 278 311-276z"/><glyph unicode="ˇ" horiz-adv-x="894" d="M444 1147l-311 274 103 123 213-168 215 168 98-121z"/><glyph unicode="˘" horiz-adv-x="827" d="M694 1475q0-63-17.5-120t-52-101-89-68.5-125.5-24.5q-72 0-125.5 25.5t-87 68.5-49 99.5-15.5 120.5h170q0-55 28.5-90t80.5-35q51 0 80.5 31.5t29.5 93.5h172z"/><glyph unicode="˙" horiz-adv-x="579" d="M446 1325q0-66-45-111t-110-45q-66 0-112 45.5t-46 110.5q0 66 46 112t112 46 110.5-46 44.5-112z"/><glyph unicode="˚" horiz-adv-x="804" d="M670 1368q0-115-78-186.5t-201-71.5q-125 0-191.5 59.5t-66.5 178.5q0 55 20.5 102t58.5 82 89 53.5 113 18.5q125 0 190.5-59.5t65.5-176.5zm-172-12q0 59-23.5 85.5t-71.5 26.5q-43 0-70.5-28.5t-27.5-81.5q0-113 96-113 43 0 70 29t27 82z"/><glyph unicode="˛" horiz-adv-x="790" d="M555 0q-94-57-135-113.5t-41-109.5q0-33 18.5-50.5t53.5-17.5q33 0 65.5 12.5t67.5 36.5l73-141q-57-51-124.5-76.5t-143.5-25.5q-119 0-187.5 55t-68.5 154q0 80 43 152.5t129 141.5z"/><glyph unicode="˜" horiz-adv-x="1005" d="M872 1364q-92-182-247-182-47 0-81 14t-73 42-56.5 38-43.5 10q-61 0-113-92l-125 96q92 182 250 183 45 0 79-14.5t73.5-42 57-38 42.5-10.5q61 0 113 92z"/><glyph unicode="˝" horiz-adv-x="1095" d="M256 1147l-123 104 264 318 152-127zm387 0l-115 104 293 301 142-137z"/><glyph unicode="̒" horiz-adv-x="0" d="M-590 1149q-59 0-94 48t-26.5 116.5 78 134 206.5 100.5l43-94q-80-41-95.5-76t1.5-73q20-59-12.5-107.5t-100.5-48.5z"/><glyph unicode="̕" horiz-adv-x="129" d="M94 1133l-170 36 103 420 209-45z"/><glyph unicode="̦" horiz-adv-x="0" d="M-580-96q55 0 90-37t35-98q0-39-16-77t-50-73-88.5-64.5-133.5-50.5l-41 95q59 33 79.5 57.5t20.5 52.5q0 23-8 42.5t-8 37.5q0 47 32.5 81t87.5 34z"/><glyph unicode="Δ" horiz-adv-x="1257" d="M55 0v201l406 1181h325l418-1181v-201h-1149zm615 922q-16 51-29.5 101t-24.5 107h-4q-10-51-23.5-104t-31.5-111l-227-675h571z"/><glyph unicode="Ω" horiz-adv-x="1460" d="M846 0v211q121 92 180 211t59 293q0 102-21.5 185t-66.5 143.5-112.5 92-157.5 31.5q-76 0-140.5-30.5t-112.5-89-74.5-141.5-26.5-185q0-92 13-164t41-131 74-111.5 113-103.5v-211h-538v215h252q-113 78-176.5 205t-63.5 303q0 152 48 277.5t138.5 217 212 139.5 265.5 48q131 0 243.5-39t196.5-120 130-204.5 46-289.5q0-178-66.5-315.5t-179.5-221.5h262v-215h-538z"/><glyph unicode="μ" horiz-adv-x="1191" d="M1139-8q-57-10-105-10-66 0-109.5 14t-70.5 40.5-38 61.5-13 80h-2q-39-90-113-141t-178-51q-88 0-131 47l31-527h-269v1512h262v-660q0-160 125-159 51 0 95.5 23.5t76 68.5 49 105.5 17.5 133.5v488h260v-651q0-53 5-86t17.5-50.5 34-24.5 56.5-7v-207z"/><glyph unicode="π" horiz-adv-x="1290" d="M1014 803q0-326 30-471 12-74 36-103.5t61-29.5q12 0 26.5 2t36.5 6l25-209q-61-16-148-16-135 0-201.5 60t-95.5 214q-16 88-25 230.5t-9 316.5h-261q2-217-24.5-427t-89.5-403l-279 54q74 209 109 395t33 381h-213v215h1204v-215h-215z"/><glyph unicode="–" d="M0 496v229h1126v-229h-1126z"/><glyph unicode="—" horiz-adv-x="2048" d="M227 496v229h1594v-229h-1594z"/><glyph unicode="―" horiz-adv-x="2048" d="M227 496v229h1594v-229h-1594z"/><glyph unicode="‘" horiz-adv-x="546" d="M471 1452q-104-113-117.5-185.5t33.5-129.5q29-35 34-77t-11.5-81-53.5-64.5-90-25.5q-72 0-120 56t-47 148.5 61.5 211 204.5 243.5l106-96z"/><glyph unicode="’" horiz-adv-x="546" d="M279 1530q72 0 118.5-56.5t46.5-148.5-60-211-204-244l-106 97q104 113 117.5 185.5t-35.5 129.5q-29 33-33 76t12.5 82 53.5 64.5 90 25.5z"/><glyph unicode="‚" horiz-adv-x="546" d="M279 305q72 0 118.5-56t46.5-149q0-92-60-210.5t-204-243.5l-106 96q104 113 117.5 184.5t-35.5 128.5q-29 35-33 78t12.5 82 53.5 64.5 90 25.5z"/><glyph unicode="“" horiz-adv-x="993" d="M471 1452q-104-113-117.5-185.5t33.5-129.5q29-35 34-77t-11.5-81-53.5-64.5-90-25.5q-72 0-120 56t-47 148.5 61.5 211 204.5 243.5l106-96zm449 0q-104-113-118-185.5t34-129.5q29-35 32.5-77t-12.5-81-52-64.5-89-25.5q-74 0-121 56t-47 149q0 92 60.5 210.5t203.5 243.5l109-96z"/><glyph unicode="”" horiz-adv-x="993" d="M279 1530q72 0 118.5-56.5t46.5-148.5-60-211-204-244l-106 97q104 113 117.5 185.5t-35.5 129.5q-29 33-33 76t12.5 82 53.5 64.5 90 25.5zm446 0q74 0 121-56.5t47-148.5-60.5-211-203.5-244l-109 97q104 113 117.5 185.5t-33.5 129.5q-29 33-33 76t12.5 82 52.5 64.5 89 25.5z"/><glyph unicode="„" horiz-adv-x="993" d="M279 305q72 0 118.5-56t46.5-149q0-92-60-210.5t-204-243.5l-106 96q104 113 117.5 184.5t-35.5 128.5q-29 35-33 78t12.5 82 53.5 64.5 90 25.5zm446 0q74 0 121-56t47-149q0-92-60.5-210.5t-203.5-243.5l-109 96q104 113 117.5 184.5t-33.5 128.5q-29 35-33 78t12.5 82 52.5 64.5 89 25.5z"/><glyph unicode="†" horiz-adv-x="935" d="M575 1092l43-181-47-522h-204l-50 522 43 181h-274v202h274l-43 279h301l-43-279h277v-202h-277z"/><glyph unicode="‡" horiz-adv-x="935" d="M578 588l43-250h-306l43 250h-272v200h272l-41 166 41 168h-272v201h272l-41 250h301l-40-250h274v-201h-274l40-168-40-166h274v-200h-274z"/><glyph unicode="•" horiz-adv-x="866" d="M737 608q0-61-23.5-116.5t-65.5-97.5-98-65.5-118-23.5q-61 0-116.5 23.5t-97.5 65.5-65.5 97.5-23.5 116.5 23.5 116.5 65.5 97.5 97.5 65.5 116.5 23.5 117.5-23.5 98.5-65.5 65.5-97.5 23.5-116.5z"/><glyph unicode="…" horiz-adv-x="1480" d="M418 137q0-66-48-113t-114-47-113 47.5-47 112.5q0 66 47 113t113 47 114-47 48-113zm477 0q0-66-47-113t-113-47-113 47.5-47 112.5q0 66 47.5 113t112.5 47q66 0 113-47t47-113zm477 0q0-66-47-113t-113-47-112.5 47.5-46.5 112.5q0 66 47 113t112 47q66 0 113-47t47-113z"/><glyph unicode="‰" horiz-adv-x="2154" d="M674 1098q0-80-24.5-142.5t-66.5-105.5-97.5-65.5-116.5-22.5q-131 0-209 79t-78 232q0 78 24.5 139.5t66.5 104.5 97.5 65.5 116.5 22.5 113.5-17.5 90.5-54.5 60.5-95 22.5-140zm-189-13q0 86-25.5 121t-78.5 35q-47 0-78-41t-31-117q0-86 28-121.5t77-35.5q47 0 77.5 40.5t30.5 118.5zm-206-1126l-156 121 1063 1341 155-121zm1107 354q0-80-24.5-142t-66.5-105-97-66-117-23q-131 0-208.5 79t-77.5 233q0 78 24.5 139t66.5 104 96 66 116 23q61 0 114.5-17.5t91-54.5 60-95.5 22.5-140.5zm-190-12q0 86-25.5 121t-76.5 35q-47 0-78-41t-31-117q0-88 27.5-123t77.5-35q47 0 76.5 41t29.5 119zm862 12q0-80-24.5-142t-66.5-105-97-66-117-23q-131 0-209 79t-78 233q0 78 25 139t66.5 104 96 66 115.5 23 113.5-17.5 91.5-54.5 61.5-95.5 22.5-140.5zm-190-12q0 86-25.5 121t-77.5 35q-47 0-77.5-41t-30.5-117q0-88 27.5-123t76.5-35q47 0 77 41t30 119z"/><glyph unicode="‹" horiz-adv-x="638" d="M315 205l-231 393 235 399 199-96-182-301 186-297z"/><glyph unicode="›" horiz-adv-x="638" d="M319 205l-198 96 184 301-186 297 207 98 231-393z"/><glyph unicode="⁄" horiz-adv-x="411" d="M-362-307l-162 110 1335 1854 160-113z"/><glyph unicode="⁴" horiz-adv-x="849" d="M676 918v-185h-221v185h-404l-14 161 301 535h338v-512h129v-184h-129zm-223 552l-205-372q18 0 46 1t57.5 1h101.5v370z"/><glyph unicode="ⁿ" horiz-adv-x="907" d="M575 733v447q0 55-19 83.5t-69 28.5q-68 0-112.5-60.5t-44.5-156.5v-342h-221v709h208q0-20-2-55t-6-64q39 66 104.5 100.5t151.5 34.5q63 0 107.5-17.5t73-48 41-72.5 12.5-91v-496h-224z"/><glyph unicode="€" horiz-adv-x="1212" d="M1157 82q-74-47-171-76t-216-29q-514 0-586 474h-159v157h147v39q0 35 1 61.5t3 55.5h-151v158h170q51 244 210.5 363.5t395.5 119.5q98 0 188-21.5t150-52.5l-62-211q-51 29-124.5 48.5t-153.5 19.5q-123 0-204-65.5t-110-200.5h398v-158h-422q-2-41-2-54.5v-60l2-41.5h422v-157h-402q23-123 100.5-189.5t225.5-66.5q63 0 140 22.5t140 63.5z"/><glyph unicode="™" horiz-adv-x="1411" d="M385 1225v-418h-186v418h-140v157h459v-157h-133zm760-418l-37 248-10 96-19-88-67-256h-174l-68 262-16 82-4-74-39-270h-176l92 575h223l70-252 16-83 14 79 70 256h223l96-575h-194z"/><glyph unicode="∂" horiz-adv-x="1298" d="M848 487q0 92-55.5 152.5t-167.5 60.5q-106 0-173-73.5t-67-186.5 56.5-171 154.5-58q53 0 99 20.5t80 57.5 53.5 88 19.5 110zm323 330q0-190-49-362t-161-295q-72-80-177.5-127t-224.5-47q-106 0-187 30.5t-135.5 88-82 136-27.5 177.5q0 109 36 201t102.5 159.5 160.5 105.5 209 38q92 0 159.5-36t106.5-95q-4 45-7 75.5t-7 59.5q-12 90-48 158.5t-90.5 114.5-125 68.5-152.5 22.5l37 219q150-2 272.5-50t209.5-137 134-217 47-288z"/><glyph unicode="∏" horiz-adv-x="1605" d="M1323 1274v-1768h-244v1768h-549v-1768h-247v1768h-199v221h1438v-221h-199z"/><glyph unicode="∑" horiz-adv-x="1243" d="M74-494v203l596 811-559 770v205h1001v-221h-680l541-746-590-792h760v-230h-1069z"/><glyph unicode="−" d="M80 496v227h967v-227h-967z"/><glyph unicode="√" horiz-adv-x="1261" d="M911 483l-147-483h-303l-96 289-181 532h-178v197h393l62-197 102-332q16-47 30.5-97t24.5-101h3q10 53 21 99t22 89l288 1073h287z"/><glyph unicode="∞" horiz-adv-x="2015" d="M803 606q-96 72-169 114t-134 42q-78 0-118-45t-40-105q0-66 42-107.5t118-41.5q63 0 138 38.5t163 104.5zm872 8q0 63-42 105.5t-117 42.5q-66 0-143-41t-163-105q98-72 171-112.5t135-40.5q78 0 118.5 45t40.5 106zm250 9q0-80-27.5-150t-81-123-132-83.5-181.5-30.5q-117 0-239.5 57t-264.5 162q-55-41-116.5-81t-126-71-132-49-139.5-18q-98 0-172.5 28.5t-124 78.5-74 116.5-24.5 142.5q0 84 30 154.5t84 123 130 81 168 28.5q125 0 250-59.5t262-163.5q53 39 113.5 79t126 72.5 133 52 137.5 19.5q96 0 170.5-27.5t126-76.5 78-116.5 26.5-145.5z"/><glyph unicode="∫" horiz-adv-x="706" d="M647 1767q-18 6-42.5 10.5t-49.5 4.5q-33 0-55.5-11.5t-38-39-22.5-80-7-133.5q0-76 3-194t6-238.5 10.5-335.5 11.5-356.5 7-273.5 3-226q0-291-83-419t-259-128q-29 0-59.5 3t-55.5 9v225q18-6 43-9t45-3q35 0 58.5 11t38 40 21.5 81 7 136q0 74-3 189.5t-6 230.5-9 333-10 361.5-7.5 276.5-3.5 229q0 147 24 252t68 170.5 109.5 95 149.5 29.5q23 0 52.5-4t53.5-10v-226z"/><glyph unicode="≈" d="M1051 356q-57-51-135-87t-154-36q-72 0-122 18.5t-93 41-86 41-96 18.5q-57 0-107.5-26.5t-93.5-61.5l-86 176q49 47 121.5 89t158.5 42q70 0 120-18t95-42 90.5-42 106.5-18q104 0 197 79l84-174zm-2 412q-55-55-127-93t-160-38q-66 0-114 18.5t-91 41-88 41-104 18.5q-57 0-109.5-25.5t-95.5-60.5l-82 174q57 53 134 92t161 39q68 0 120-18.5t97-42 87-42 89-18.5q53 0 102.5 24.5t92.5 65.5l88-176z"/><glyph unicode="≠" d="M561 307l-98-248h-234l99 248h-219v211h301l71 180h-372v211h454l99 248h235l-98-248h219v-211h-303l-72-180h375v-211h-457z"/><glyph unicode="≤" d="M145 0v219h836v-219h-836zm650 297l-682 526 680 527 165-179-495-346 495-346z"/><glyph unicode="≥" d="M145 0v219h836v-219h-836zm189 297l-166 178 496 346-496 346 164 183 682-527z"/><glyph unicode="◊" horiz-adv-x="1282" d="M631 1116l-297-416 315-436 301 414zm96-1134h-164l-518 712 514 707h160l518-713z"/><glyph unicode="" horiz-adv-x="1013" d="M0 1014h1014v-1014h-1014v1014z"/><glyph unicode="" horiz-adv-x="358" d="M358 2007v-2662h-358v2662h358z"/><glyph unicode="" horiz-adv-x="1966" d="M604 86q0-16-9-26.5t-20-20.5q-8-2-16-8t-18 0q-14 4-10 15t6 22q0 12 18 20 12 0 20 8 6-2 15.5-1t13.5-9zm277 72q14-29 8-59.5t-27-53.5q-4-8-11-9t-13-5q-27 4-30 26.5t-7 40.5q4 16 5 34t11 32q14 8 20.5 22.5t22.5 14.5l6-6q-4-14 4.5-20.5t10.5-16.5zm-373 213q-25 4-52.5 3t-54.5-3q-16-2-30.5-5.5t-24.5-11.5q-2-33-6-66.5t-8-66.5q4-53 2-111.5t2-113.5q8 0 15 3t14-1q12 4 23-1t24 1q2 33 2 63 0 33 2 66 4 10 13 15t20 10q8 4 16-.5t14 6.5l-2 57q-8 10-19.5 9t-23.5-1q-8-8-14-8-16 4-15 19.5t-4 25.5q-4 8 9 21 20 6 39.5 9t39.5 7l13 8q-4 18 1 34t5 32zm174-301q-6 23-6 45 0 23 1 45t-1 43.5-14 40.5q-23 14-48 24l-16 11q-16-4-33.5-1t-34.5-10q-14-8-14-22t-2-31q10-4 23.5-3t25.5 2 23.5-2 19.5-15q-2-8 3-12.5t-1-12.5q-6-10 2-16 4-4 2-10.5t-8-8.5q-14-4-27.5-3t-29.5-3q-23-10-35-31.5t-16-44.5q-6-10-1-21t-3-22q0-14 10-22t20-13q10 10 17 5 16-4 29.5 9t29.5 23q10 2 12-2t2-12q0-6-1-14.5t5-12.5q10-4 16.5 0t16.5 4q8 4 16.5 5.5t14.5 7.5l2 80zm256-9q18 35 13 72t-13 78q2 6-5 12t-16.5 10.5-17.5 9.5-12 7q-4 4-10 4-4 0-7-6-23 2-39-8-10-6-15-16.5t-13-14.5q-10-6-19 6 8 37 4 75t-10 77l-4 14h-16q-18-6-16.5-22.5t-2.5-28.5q-6-35-4-70t-4-70q4-35 0-67.5t0-63.5q0-18-3-35.5t-1-37.5q14-8 31.5-2t32.5 12q10 4 16 2t11-8 10.5-12.5 11.5-10.5q16 0 26 2 23 12 48.5 39.5t23.5 52.5zm209 191q-16-2-33.5-5t-28.5-22q-8-8-10-23.5t-20-11.5q-4 16-4 29v31q-8 4-15.5 0t-15.5 0q-14-8-23-27 0-59 1-113.5t8-113.5l6-8q10-8 23.5-3t23.5 1q-6 23-1 42t-3 42q4 23 10 46t22 44q12 10 26.5 13t27.5 13q2 16 6 33t0 33zm102-221q0 41-2 80t-2 75q0 14 2 27.5t-2 26.5q-14 10-27.5 4t-29.5-4q-14-23-10-49.5t0-53.5q-4-10-4-24t-3-29q4-20 1-45t12-45q31 0 61 10 4 6 4 12v15zm-4 336q-4 10-9 18t-15 12q-4 4-10.5 5t-10.5-5q-10-12-14-30.5t6-30.5q4-10 16.5-11t22.5 3q18 12 14 39zm268-387q-8 16-16 33.5t-20 31.5q-12 23-26.5 42t-18.5 46q-4 10-10.5 17.5t-2.5 17.5q14 16 34 26.5t34 26.5l-19 35q-18-2-32.5-9t-30.5-11q-8-4-18.5-12.5t-20.5 1.5q2 41 3 81t-1 79l-4 6q-16 0-28.5 5t-26.5 10q-4-23-7.5-48.5t1.5-50.5q-6-16-1-39.5t-4-40.5q2-31 1-56.5t-3-50-2-48.5q0-25 2-56l-2-14h49q6 2 13.5-2t11.5 2v27q0 14-2 30 2 16-4 34t14 24q10-4 11.5-13.5t7.5-17.5q-2-14 7-24.5t13-22.5q20-12 30.5-32.5t29.5-35.5q6 2 11-3t15-1q12 1 12 13zm-643 1124q-4 23-15 44t-38 26q-4-10-13-7.5t-16 .5q-14 6-28.5 2t-24.5-14q-23-31-7.5-59.5t32.5-55.5q4-8 10-6t14 0q14-4 26.5 3t25.5 12q12 12 27 22t7 33zm701-1231q-45 4-100.5-5t-98.5-3q-115 4-223.5-8.5t-220.5.5q-51-8-99.5-3t-97.5 9q-59 4-121.5 3t-126.5-1q-43 0-102-3t-102-14q-8-2-19-2-8 0-12 11 0 33-2 66.5t8 66.5q4 41 2 82t4 82q-8 47-1 91t-1 91q0 66 5 132.5t9 135.5q4 74 1 146.5t1 146.5q8 16 23.5 13t30.5 1q16-10 37.5-5t37.5 3q6 6 15.5 11.5t11.5-9.5q4-4 1-12t5-12q-4-29-3-78t4-106.5 7.5-118 6.5-109.5q66 20 120 56t117 59q10 4 19.5 12t23.5 12q4 2 8 6.5t13 .5q10-4 8-14.5t-2-20.5q-20-59-10-125 4-10 13-6t15 4q16 14 34.5 23.5t35.5 21.5q20 12 40.5 23.5t43.5 19.5q25 16 48 32.5t50 26.5l41 33q2 8 12 14 6 0 11.5-4t11.5-8q0-29 6-58.5t6-58.5q2-6 6-5t6-3q8-10 4-20.5t-8-20.5l4-4q35 8 65 26.5t59.5 39 59 39 64.5 26.5q10 10 22.5 13t22.5 14q10 2 18.5 9t17.5 13 19.5 9.5 22.5-7.5q4 0 8-2t6-6q-2-8 1.5-13t7.5-11q-4-16 0-29.5t-4-26.5q2-27 0-51.5t10-46.5q-4-14 5-25.5t-1-21.5q2-16 0-29.5t8-25.5q2-10 3-19.5t-5-17.5q4-23 5-47.5t9-47.5q-4-8-2-16t2-16q0-78 11.5-151t13.5-150q0-4 3-9.5t-1-9.5zm-645 1487q-25-27-60-17-10 12-18 23.5t-10 26.5q-27 41-72 51t-88 22l-64 4q-4-4-12-2t-14-2q-68-20-113-43-12-16-31.5-27.5t-23.5-33.5q-12-31-16.5-70t-6.5-73q10-8 22.5-5t22.5 0q43 4 86 5h90q8-4 3-15-16-12-32-1t-32 5q-20 2-41.5-1t-42.5-1q-18-4-39-4-18 0-35-10l-6-8q-4-39-3-63.5t5-65.5q4-14 1-28.5t7-29.5q27-2 42.5-1t28.5 2 28.5 3.5 42.5 2.5q6 4 13 2t13-5q2-2 1-4t1-4l-8-4q-25 4-43 3t-36.5-3-41-4-53.5 0q-23-2-47.5-4t-46.5 0q-33-2-68-2t-63 8l-4 6q6 6 18 11 16-8 37-9.5t43-5.5q14 2 28.5 1t24.5 7q-2 53 8.5 94.5t14.5 96.5q-2 4-6 8-31 2-58.5 0t-56.5 10q-4 10 6 11 29-8 58-9 29 0 57 2l4 7q4 35 11 70.5t20 64.5v6q47 53 107.5 86t135.5 41q37 4 74-4t70-23q10-4 20-4t21-4q35-8 69.5-24.5t57.5-47.5q4-4 0-18zm-11-215q6-39-14-64-23-14-41-31.5t-45-21.5q-12 4-14-7t-12.5-3-24.5 4-27-2q-12 0-22 1t-21 5q-16 14-31.5 31.5t-5.5 42.5q6 18 17.5 34.5t32.5 26.5q23 10 45 21.5t51 5.5q33-2 64.5-8t47.5-35zm412-117q-25 0-52.5-1t-51.5-9q-8 4-15.5 5t-11.5 11q4 29 7 57.5t-5 57.5q-4 6-13 1t-16-9q-29-16-54-40t-30-59q-8-8-18-11t-20 1q-10 14-6.5 30.5t-.5 33.5l-2 63q-6 6-16 3t-21 1q-4 4-13 2t-9 9q27-2 52.5 2t53.5 0q6-6 7-15v-16l2-14.5 10-10.5q29 12 53.5 29.5t52.5 28.5q12-8 28.5-3t21.5-16q4-23 3-44t1-44q4-6 3-13t5-11q18-4 26 0 8 0 16.5-2.5t18.5-2.5q6-4 0-10zm475 141q0-8-4-8-23 4-43 1t-43-5q-70-4-109.5-6t-74.5-8q-16-14-14-32.5t-7-35.5q0-10 3-16t6-15q8-10 28-14 14 2 27.5 8t19.5 19q0 14-14 24-10 8-21.5 6t-19.5 9q6 10 19.5 8t25.5-2q20-6 31-33-2-31-37-55-10-4-21.5-5t-21.5-5q-25 6-50.5 16t-41.5 33q-8 25-2 46t8 44q-4 10-12.5 8t-18.5 0l-67-2q0 4-2 4t-3 4q6 4 15 4 8 0 14 2 18-4 39-2t39 2q8 6 9 15.5t1 19.5q6 14 7 32.5t12 29.5q10 6 16-2.5t12-12.5q10-16 6-35.5t5-38.5q8-12 21-8t24 0q47 4 100 3t131 10q6-5 8-7z"/><glyph unicode="" horiz-adv-x="1218" d="M817 0v815h-362v-815h-260v815h-179v203h179v33q0 221 124.5 341.5t387.5 120.5q80 0 160.5-10t158.5-26l-47-220q-72 18-145.5 29.5t-141.5 11.5q-121 0-179-58t-58-169v-53h622v-1018h-260z"/><glyph unicode="" horiz-adv-x="1218" d="M817 0v1288q-78 12-155 12-106 0-156.5-50t-50.5-158v-74h223v-203h-223v-815h-260v815h-179v203h179v65q0 100 26.5 179t85 134.5 153.5 85 228 29.5q115 0 226.5-11t162.5-19v-1481h-260z"/><glyph unicode="" horiz-adv-x="2138" d="M340 750q-6-63 0-123l-307-31q-12 90 0 182zm747-23q4 0 5 10 0 10-5 11 6-11 0-21zm-6 4q10 0 5 4t-1 4v2q-10 0-4-4t0-4v-2zm-6 4q-4-4-4-2 0 4 4 2zm0-4h2v6q0 10-8 2 4 0 6-2-4 0-6-4t6 0v-2zm-6-4q-6 10 0 21-4 0-4-11 0-10 4-10zm-8 6q-4-2-4 2 0 6 4 4v2q-4 2-5-5t5-5v2zm-10 8v-6q0-4-1-3t-1 3v6h-2v-6q0-4 2-4 4 0 4 4v6h-2zm-7-8h-4v12h-2v-14h6v2zm250-774l-479-125 47-113h414l22 56-8 20-143-37-31 84 205 52zm0 172l-479-123 27-63 479 121zm-475 152v-97l29-69 471 121v45h-500zm330 391q-23 4-42.5 5t-37.5 1q-16 0-36.5-1t-45.5-5l31-281h104l27 281zm-229-281l-33 264q-29-6-46.5-13t-31.5-11q-16-6-25.5 12.5t-10.5 42 3 46 17 26.5q61 16 132.5 28.5t143.5 12.5q76 0 146.5-12.5t134.5-28.5q10-4 14-25.5t2-46-11-43-26-12.5q-29 12-82 24l-26-264h100q57 49 96 125t39 168q0 80-30.5 151.5t-83 124-123 83-150.5 30.5-150.5-30.5-123-83-83-124-30.5-151.5q0-86 36-163t99-130h103zm675 293q0-104-37.5-195.5t-97.5-154.5v-164l-33-10 66-156-66-16 66-150-68-18 21-49-64-146h-116q-6-41-62.5-69.5t-134.5-28.5q-80 0-135 28.5t-62 69.5h-116l-111 267 64 18-66 154 72 20-39 90v162q-59 68-96 158t-37 190q0 111 41 206t112.5 166.5 168 112.5 204.5 41q109 0 204-41t166.5-112.5 113.5-166.5 42-206zm510 90q4-47 5-90t-3-88l-303 29q6 59 0 123l301 26zm-374 701q35-29 66.5-61t60.5-66l-232-191q-16 23-40.5 46.5t-45.5 39.5zm-601-74q-29 4-61 4-31 0-59-4l-31 297q45 4 90 4 47 0 90-4l-29-297zm-851-51q31 35 61.5 66.5t65.5 60.5l196-236q-23-16-46.5-39.5t-39.5-46.5l-237 195z"/><glyph unicode="ﬀ" horiz-adv-x="1343" d="M840 1249q-41 14-91.5 22.5t-95.5 8.5q-102 0-150-50t-48-149v-63h356v59q0 98 29 172zm526 31q-16 4-53 11t-78 7q-84 0-123-48t-39-154v-78h238v-203h-238v-815h-262v815h-356v-815h-260v815h-179v203h179v49q0 98 27.5 176t85 134.5 147.5 86 215 29.5q74 0 155.5-12.5t149.5-32.5q96 63 254 63 49 0 93-5t62-9z"/><glyph unicode="ﬁ" horiz-adv-x="1218" d="M817 0v815h-362v-815h-260v815h-179v203h179v33q0 221 124.5 341.5t387.5 120.5q80 0 160.5-10t158.5-26l-47-220q-72 18-145.5 29.5t-141.5 11.5q-121 0-179-58t-58-169v-53h622v-1018h-260z"/><glyph unicode="ﬂ" horiz-adv-x="1218" d="M817 0v1288q-78 12-155 12-106 0-156.5-50t-50.5-158v-74h223v-203h-223v-815h-260v815h-179v203h179v65q0 100 26.5 179t85 134.5 153.5 85 228 29.5q115 0 226.5-11t162.5-19v-1481h-260z"/><glyph unicode="ﬃ" horiz-adv-x="1832" d="M848 1245q-45 16-96.5 25.5t-98.5 9.5q-102 0-150-50t-48-149v-63h356v33q0 55 9.5 104t27.5 90zm586-1245v815h-361v-815h-262v815h-356v-815h-260v815h-179v203h179v49q0 98 27.5 176t85 134.5 147.5 86 215 29.5q78 0 171-15.5t165-37.5q57 37 137 55t182 18q80 0 161-10t159-26l-48-220q-72 18-145.5 29.5t-140.5 11.5q-121 0-179.5-58t-58.5-169v-53h623v-1018h-262z"/><glyph unicode="ﬄ" horiz-adv-x="1832" d="M842 1249q-43 14-93.5 22.5t-95.5 8.5q-102 0-150-50t-48-149v-63h356v65q0 92 31 166zm592-1249v1288q-76 12-156 12-106 0-155.5-50t-49.5-158v-74h215v-203h-215v-815h-262v815h-356v-815h-260v815h-179v203h179v49q0 98 27.5 176t85 133.5 147.5 85 215 29.5q76 0 163-13.5t158-33.5q59 33 136 50t180 17q115 0 226.5-11t162.5-19v-1481h-262z"/><glyph unicode="ﬆ" horiz-adv-x="1591" d="M1530 8q-49-12-107.5-20t-109.5-8q-86 0-143.5 16t-92.5 55-49 100.5-14 153.5v510h-174v203h174v22q0 119-64.5 194t-179.5 75q-90 0-133-41t-43-107q0-51 29.5-90t83.5-59l-21-197q-39 12-87 20.5t-99 8.5q-74 0-111-26.5t-37-72.5q0-43 32-67.5t78-44 101-41 101.5-55 78-87 31.5-139.5q0-70-27.5-130t-83-105-138.5-70.5-193-25.5q-63 0-124 7t-110 19l15 217q47-18 110.5-29.5t120.5-11.5q78 0 118 28t40 77q0 45-31 69.5t-78 44-100 40-100.5 53-78 87-30.5 140.5q0 63 24.5 118.5t70.5 96.5 110.5 63.5 144.5 22.5q-41 27-63.5 70t-22.5 96q0 63 27.5 121.5t83 102.5 139.5 69.5 195 25.5 199.5-27.5 151-85 97.5-142.5 35-199v-35h244v-203h-244v-461q0-90 24.5-122.5t90.5-32.5q33 0 63.5 4t56.5 10z"/><glyph horiz-adv-x="1818" d="M1470 535q0 287-174 286-49 0-90-26.5t-69.5-72.5-44-105.5-15.5-122.5v-285q14-4 51-12.5t86-8.5q119 0 187.5 83.5t68.5 263.5zm275 26q0-129-37-235.5t-107.5-184.5-174-119.5-232.5-41.5q-127 0-230.5 18t-146.5 31v1259q-78 12-155 12-106 0-156.5-50t-50.5-158v-74h215v-203h-215v-815h-260v815h-179v203h179v65q0 100 26.5 179t85 134.5 153.5 85 228 29.5q115 0 226.5-11t162.5-19v-424q0-47-4-103.5t-12-95.5h4q39 84 120 132t185 48q182 0 278.5-125t96.5-352z"/><glyph horiz-adv-x="1839" d="M1440 0v651q0 84-28 126t-97 42q-49 0-92-25.5t-76-71.5-51.5-106.5-18.5-126.5v-489h-260v1288q-78 12-155 12-106 0-156.5-50t-50.5-158v-74h215v-203h-215v-815h-260v815h-179v203h179v65q0 100 26.5 179t85 134.5 153.5 85 228 29.5q115 0 226.5-11t162.5-19v-424q0-53-4-108.5t-14-98.5h4q45 88 132 138t202 50q84 0 142-24.5t94-68.5 51.5-102.5 15.5-127.5v-715h-260z"/><glyph horiz-adv-x="1214" d="M1077-76q0-106-20.5-185t-66.5-134.5-121.5-84-186.5-28.5q-35 0-74 5t-71 16l16 223q31-10 63.5-17.5t59.5-7.5q80 0 110.5 41t30.5 146v917h-362v-815h-260v815h-179v203h179v33q0 221 124.5 341.5t387.5 120.5q80 0 160.5-10t158.5-26l-47-220q-72 18-145.5 29.5t-141.5 11.5q-121 0-179-58t-58-169v-53h622v-1094z"/><glyph horiz-adv-x="1744" d="M817 1288q-78 12-155 12-106 0-156.5-50t-50.5-158v-74h215v-203h-215v-815h-260v815h-179v203h179v65q0 100 26.5 179t85 134.5 153.5 85 228 29.5q115 0 226.5-11t162.5-19v-887l297 424h320l-357-465 383-553h-327l-316 504v-504h-260v1288z"/><glyph horiz-adv-x="751" d="M575 1466l-442 109 62 188 423-153z"/><glyph horiz-adv-x="751" d="M176 1466l-43 144 426 153 59-188z"/><glyph horiz-adv-x="991" d="M858 1614q0-59-41-100t-100-41-100.5 40.5-41.5 100.5q0 59 41 100t101 41q59 0 100-41t41-100zm-442 0q0-59-41-100t-101-41q-59 0-100 40.5t-41 100.5q0 59 41 100t100 41 100.5-41 41.5-100z"/><glyph horiz-adv-x="868" d="M133 1518v165h600v-165h-600z"/><glyph horiz-adv-x="946" d="M752 1464l-279 113-280-113-60 135 344 173 336-170z"/><glyph horiz-adv-x="1034" d="M901 1659q-94-168-258-168-47 0-82 13.5t-76 39-58 34.5-44 9q-68 0-119-88l-131 90q94 168 258 168 47 0 83-13t76-39 58.5-35 44.5-9q35 0 63.5 21.5t53.5 64.5z"/><glyph horiz-adv-x="946" d="M469 1464l-336 168 64 140 276-113 281 113 59-132z"/><glyph horiz-adv-x="849" d="M715 1759q0-57-18.5-108.5t-56.5-89-93-59-125-21.5-124 21.5-91 60.5-55.5 89-18.5 107h156q0-49 39-83t96-34q61 0 98 33t37 84h156z"/><glyph horiz-adv-x="579" d="M446 1626q0-66-46-112t-109-46q-66 0-112 46.5t-46 111.5q0 63 46 109.5t112 46.5 110.5-45 44.5-111z"/><glyph horiz-adv-x="813" d="M680 1696q0-111-79-178.5t-204-67.5q-127 0-195.5 57.5t-68.5 169.5q0 111 80 178.5t205 67.5 193.5-57 68.5-170zm-176-10q0 109-96 108-43 0-70-27.5t-27-78.5q0-109 95-109 43 0 70.5 28t27.5 79z"/><glyph horiz-adv-x="1101" d="M254 1462l-121 105 260 305 150-129zm393-2l-117 109 297 289 140-138z"/><glyph horiz-adv-x="667" d="M285 1204l-152 82 213 375 189-98z"/><glyph horiz-adv-x="765" d="M401 1135l-227 342 188 100 193-358z"/><glyph horiz-adv-x="712" d="M276 1139l-143 102 234 332 176-119z"/><glyph horiz-adv-x="702" d="M682 1327q0-57-42-99t-99-42q-59 0-100.5 42t-41.5 99q0 59 41 100t101 41q59 0 100-41t41-100zm-379 0q0-57-42-99t-99-42q-59 0-100.5 41t-41.5 100 41 100 101 41q59 0 100-41t41-100z"/><glyph horiz-adv-x="808" d="M143 1229v188h523v-188h-523z"/><glyph horiz-adv-x="872" d="M614 1147l-180 166-186-166-94 117 280 278 281-274z"/><glyph horiz-adv-x="948" d="M805 1366q-35-86-92.5-133t-137.5-47q-35 0-63.5 13t-52 30.5-49 35-41.5 17.5q-29 0-53.5-25.5t-41.5-60.5l-120 90q27 80 86 131t141 51q35 0 64.5-13t54-30.5 50-35 40.5-17.5q29 0 52.5 24.5t41.5 61.5z"/><glyph horiz-adv-x="763" d="M643 1475q0-150-68.5-232t-197.5-82q-127 0-193.5 82t-66.5 232h168q0-53 25.5-89t68.5-36q45 0 69.5 32.5t24.5 92.5h170z"/><glyph horiz-adv-x="962" d="M829 1614q0-59-40.5-100t-100.5-41q-59 0-100 40.5t-41 100.5q0 59 41 100t100 41 100-41 41-100zm-413 0q0-59-41-100t-101-41q-59 0-100 40.5t-41 100.5q0 59 41 100t100 41 100.5-41 41.5-100z"/></font>
</defs>
</svg>
