<?xml version="1.0" standalone="no"?>
<!DOCTYPE svg PUBLIC "-//W3C//DTD SVG 1.1//EN" "http://www.w3.org/Graphics/SVG/1.1/DTD/svg11.dtd" >
<svg xmlns="http://www.w3.org/2000/svg">
<metadata>
Copyright   : Copyright 2014 Luc(as) de Groot. All rights reserved. Published by LucasFonts.com
Designer    : Luc(as) de Groot
Foundry     : LucasFonts
Foundry URL : http://lucasfonts.com
</metadata>
<defs>
<font id="TheSans_LP_400_SemiLight" horiz-adv-x="1126" >
<font-face units-per-em="2048" ascent="1516" descent="-532" />
<missing-glyph horiz-adv-x="446" />
<glyph unicode=" "  horiz-adv-x="446" />
<glyph unicode="&#x09;" horiz-adv-x="446" />
<glyph unicode="&#xa0;" horiz-adv-x="446" />
<glyph unicode="!" horiz-adv-x="653" d="M455 90q0 -45 -31 -75.5t-78 -30.5t-77.5 30.5t-30.5 75.5q0 47 30.5 78t77.5 31t78 -31t31 -78zM410 328h-127l-29 1108h184z" />
<glyph unicode="&#x22;" horiz-adv-x="716" d="M252 979h-111l-28 451h168zM578 979h-113l-27 451h166z" />
<glyph unicode="#" horiz-adv-x="1175" d="M901 893l-43 -389h199v-107h-209l-41 -397h-125l41 397h-332l-41 -397h-125l41 397h-196v107h209l43 389h-201v104h209l43 385h125l-43 -385h331l41 385h125l-41 -385h193v-104h-203zM446 893l-43 -389h330l43 389h-330z" />
<glyph unicode="$" horiz-adv-x="999" d="M881 420q0 -141 -90.5 -240.5t-255.5 -128.5v-272h-117v266q-76 0 -136.5 7t-119.5 24l8 147q27 -10 60.5 -19t70.5 -15.5t73 -9.5t66 -3q59 0 110.5 12.5t89.5 39t59.5 68.5t21.5 101q0 74 -44 119t-109.5 77t-143.5 60.5t-143.5 70.5t-109.5 105.5t-44 165.5 q0 133 91 224.5t241 111.5v219h119v-213q61 -2 116.5 -8t100.5 -16l-11 -139q-55 16 -115.5 26t-117.5 10q-76 0 -128 -16t-84 -44t-45 -62.5t-13 -71.5q0 -72 44 -116t111.5 -76.5t144 -62.5t144.5 -73t112 -105.5t44 -162.5z" />
<glyph unicode="%" horiz-adv-x="1527" d="M547 1081q0 106 -38 159.5t-124 53.5q-72 0 -115 -56t-43 -148q0 -109 39 -163.5t125 -54.5q70 0 113 57.5t43 151.5zM1300 297q0 109 -37.5 161t-123.5 52q-72 0 -115 -56.5t-43 -148.5q0 -109 39 -163t127 -54q68 0 110.5 58.5t42.5 150.5zM678 1096q0 -145 -80 -237.5 t-221 -92.5q-147 0 -214 81t-67 228q0 70 20.5 129.5t59.5 103.5t95.5 68.5t125.5 24.5q145 0 213 -79t68 -226zM305 -41l-102 72l1016 1388l100 -69zM1432 311q0 -72 -20.5 -132t-59.5 -104t-95.5 -68.5t-126.5 -24.5q-147 0 -213.5 81.5t-66.5 229.5q0 70 20.5 129 t59.5 103t95 68.5t126 24.5q145 0 213 -80t68 -227z" />
<glyph unicode="&#x26;" horiz-adv-x="1626" d="M1004 270q-70 55 -141.5 115.5t-139.5 121t-127 118t-104 104.5q-74 -59 -121 -112.5t-69.5 -107.5t-22.5 -116q0 -61 21.5 -112.5t62 -89t101 -58t134.5 -20.5q63 0 121.5 12t110 33.5t94.5 50t80 61.5zM727 1219q0 74 -44 120.5t-132 46.5q-78 0 -128 -49t-50 -125 q0 -61 32.5 -133.5t116.5 -169.5q70 53 114 102.5t67.5 101t23.5 106.5zM1405 -37q-76 57 -152.5 115.5t-140.5 109.5q-51 -47 -110.5 -84.5t-128 -64.5t-145.5 -42t-159 -15q-106 0 -190 27.5t-141.5 80.5t-87 125t-29.5 160q0 92 37 170t98 142.5t152 133.5 q-51 59 -87 111.5t-58.5 98.5t-33 89t-10.5 84q0 61 23.5 115.5t67.5 96.5t109.5 65.5t147.5 23.5q147 0 229.5 -74.5t82.5 -193.5q0 -74 -28 -139.5t-87 -131t-158 -143.5q45 -47 104.5 -102t126 -113.5t135 -115t136.5 -109.5q23 31 43 66.5t36.5 75.5t30 85t21.5 93.5 t10 99.5t0 104h156q2 -70 -5 -137.5t-22.5 -132t-39 -123.5t-54.5 -113.5t-67 -101.5q66 -51 139.5 -107.5t142.5 -107.5z" />
<glyph unicode="'" horiz-adv-x="393" d="M252 979h-111l-28 451h168z" />
<glyph unicode="(" horiz-adv-x="618" d="M457 -422q-92 145 -150.5 279.5t-91.5 259.5t-44 240.5t-11 224.5q0 106 13 226t47 248t92.5 264t146.5 275l106 -55q-129 -217 -193.5 -457.5t-64.5 -490.5q0 -266 63.5 -500.5t198.5 -458.5z" />
<glyph unicode=")" horiz-adv-x="618" d="M473 592q0 -109 -14.5 -228.5t-48 -247.5t-92 -263.5t-146.5 -274.5l-106 55q129 217 193.5 458t64.5 491q0 264 -63.5 499.5t-197.5 456.5l113 57q92 -147 150.5 -281t90.5 -258t44 -239.5t12 -224.5z" />
<glyph unicode="*" horiz-adv-x="755" d="M600 995l-190 133l20 -231h-119l21 231l-191 -133l-57 103l211 98l-211 98l59 101l189 -131l-19 231h117l-18 -231l190 131l57 -101l-210 -96l210 -98z" />
<glyph unicode="+" d="M635 545v-424h-146v424h-401v129h401v422h146v-422h403v-129h-403z" />
<glyph unicode="," horiz-adv-x="444" d="M217 203q49 0 81 -40t29 -109.5t-51.5 -161t-156.5 -193.5l-68 59q94 106 108.5 175t-18.5 112q-18 25 -20 52.5t9 51t33.5 39t53.5 15.5z" />
<glyph unicode="-" horiz-adv-x="671" d="M98 532v127h475v-127h-475z" />
<glyph unicode="&#xad;" horiz-adv-x="671" d="M98 532v127h475v-127h-475z" />
<glyph unicode="." horiz-adv-x="444" d="M334 94q0 -47 -33 -78.5t-80 -31.5q-45 0 -77.5 32.5t-32.5 77.5q2 49 34.5 80t75.5 31q47 0 80 -33t33 -78z" />
<glyph unicode="/" horiz-adv-x="876" d="M162 -330h-146l717 1880h146z" />
<glyph unicode="0" horiz-adv-x="1220" d="M936 688q0 150 -20.5 259.5t-61.5 182t-102.5 107.5t-141.5 35q-72 0 -130 -33t-102 -101.5t-68.5 -180t-24.5 -263.5q0 -297 82 -439t243 -142q72 0 130.5 31.5t102.5 101t68.5 180t24.5 262.5zM1100 705q0 -178 -37 -314.5t-103.5 -227.5t-158.5 -136t-205 -45 q-106 0 -192.5 36.5t-150 117.5t-98 216t-34.5 326q0 178 37 314t103.5 227.5t158.5 136.5t205 45q106 0 192 -37t149.5 -118t98.5 -216t35 -325z" />
<glyph unicode="1" horiz-adv-x="747" d="M389 0v1229l-319 -121l-29 133l379 143h127v-1384h-158z" />
<glyph unicode="2" horiz-adv-x="1028" d="M127 0v129l279 328q82 96 138 174t91 144.5t51 126t16 116.5q0 109 -66.5 178.5t-189.5 69.5q-66 0 -140.5 -22.5t-135.5 -59.5l-23 137q78 39 160 59.5t174 20.5q90 0 163 -26.5t123 -76t75.5 -116t25.5 -144.5q0 -68 -18.5 -138.5t-58 -148t-105 -167.5t-160.5 -197 l-213 -248v-2q35 2 83 3t108.5 2t128 2t141.5 1h152v-145h-799z" />
<glyph unicode="3" horiz-adv-x="989" d="M139 143q49 -12 111.5 -20t122.5 -8q172 0 255 78.5t83 199.5q0 125 -96.5 197t-282.5 72q-25 0 -56.5 -1.5t-68.5 -3.5v125q236 -4 343 64.5t107 204.5q0 104 -65.5 162.5t-179.5 58.5q-68 0 -130.5 -17.5t-117.5 -44.5l-21 129q66 29 140.5 45.5t152.5 16.5 q98 0 170 -25.5t119 -69.5t70.5 -103.5t23.5 -127.5q0 -117 -64.5 -203t-181.5 -124v-3q137 -29 220.5 -117.5t83.5 -221.5q0 -90 -35 -168t-101.5 -134.5t-163 -88t-219.5 -31.5q-61 0 -125.5 5t-115.5 15z" />
<glyph unicode="4" horiz-adv-x="1110" d="M676 1235h-2l-479 -764q59 2 152 4t173 2h156v758zM827 340v-340h-151v340h-627l-10 119l582 923h206v-903h242v-139h-242z" />
<glyph unicode="5" horiz-adv-x="952" d="M877 436q0 -102 -36 -185t-102.5 -143.5t-159 -92t-202.5 -31.5q-61 0 -127 8t-121 20l18 142q55 -16 118 -26.5t126 -10.5q152 0 237 77.5t85 219.5q0 141 -96.5 214.5t-288.5 73.5q-45 0 -88 -2t-64 -4v686h617v-147h-471v-408q281 12 418 -94.5t137 -296.5z" />
<glyph unicode="6" horiz-adv-x="1159" d="M940 1251q-70 8 -107.5 10.5t-68.5 2.5q-115 0 -192.5 -30t-125.5 -79q-59 -59 -90.5 -131t-48 -141.5t-22.5 -127t-15 -85.5h2q41 80 134.5 134t220.5 54q98 0 177 -29.5t134 -85t84 -131t29 -168.5q0 -100 -34 -185t-95.5 -146.5t-147.5 -96t-188 -34.5 q-98 0 -179 32.5t-135 85.5q-78 78 -112.5 201t-34.5 309q0 207 47 355.5t133 245t206 142.5t267 46q43 0 89 -3t83 -7zM889 422q0 68 -19.5 124t-56.5 97t-91 63.5t-124 22.5q-139 0 -218 -85t-79 -218q0 -66 22.5 -129.5t65.5 -106.5q35 -35 87 -56t122 -21 q61 0 114.5 20.5t92.5 60t61.5 97t22.5 131.5z" />
<glyph unicode="7" horiz-adv-x="944" d="M885 1249q-63 -133 -127 -290.5t-122 -323.5t-106.5 -329t-83.5 -306h-178q43 162 99.5 337t118 341t120 310.5t107.5 248.5q-43 -2 -157 -3t-234.5 -1h-266.5v149h830v-133z" />
<glyph unicode="8" horiz-adv-x="1130" d="M842 328q0 55 -19.5 98t-55.5 80t-87 68.5t-125 68.5q-68 -37 -116 -70.5t-81.5 -69.5t-51 -78t-17.5 -93q0 -102 71.5 -161.5t206.5 -59.5q59 0 109.5 14t87.5 41t57.5 68t20.5 94zM821 1073q0 88 -64.5 146.5t-189.5 58.5q-117 0 -186.5 -53.5t-69.5 -145.5 q0 -90 61.5 -155.5t202.5 -132.5q133 72 189.5 137t56.5 145zM1004 340q0 -82 -33 -148.5t-93.5 -113.5t-144.5 -71.5t-186 -24.5q-104 0 -183 25.5t-131.5 70.5t-79 106.5t-26.5 134.5q0 66 20.5 120.5t58.5 100.5t92 86t128 81q-143 76 -208.5 160.5t-65.5 199.5 q0 74 28.5 136.5t83.5 107.5t136 69.5t184 24.5q94 0 168.5 -23.5t125 -66.5t76 -100.5t25.5 -124.5q0 -61 -19.5 -112.5t-54.5 -94.5t-84 -81t-116 -77q76 -39 131 -79t93 -86t56.5 -100t18.5 -120z" />
<glyph unicode="9" horiz-adv-x="1159" d="M860 932q0 160 -82 250t-213 90q-66 0 -119 -22.5t-93 -65.5t-61.5 -104.5t-21.5 -129.5q0 -145 79 -227t210 -82q70 0 124 22.5t94 63.5t61.5 96.5t21.5 108.5zM1034 809q0 -219 -54 -380t-150.5 -261t-221.5 -143t-262 -43q-96 0 -162 12v145q45 -12 90 -16t91 -4 q412 0 485 452q6 31 10 54.5t8 48.5h-2q-45 -70 -136 -117t-206 -47q-186 0 -299.5 113.5t-113.5 302.5q0 100 35.5 189t98 153.5t151.5 98.5t184 34q98 0 181 -32t143.5 -103.5t95 -184t34.5 -272.5z" />
<glyph unicode=":" horiz-adv-x="577" d="M432 94q0 -47 -31.5 -78.5t-78.5 -31.5t-80 31.5t-33 78.5t32.5 79t80.5 32q47 0 78.5 -32t31.5 -79zM432 702q0 -47 -31.5 -79.5t-78.5 -32.5t-80 32.5t-33 79.5t32.5 79t80.5 32q47 0 78.5 -32t31.5 -79z" />
<glyph unicode=";" horiz-adv-x="577" d="M319 203q49 0 81 -40t29 -109.5t-51 -161t-157 -193.5l-67 59q47 51 72.5 95.5t34.5 80t3 63.5t-20 48q-18 25 -20.5 52.5t9 51t33.5 39t53 15.5zM432 702q0 -47 -31.5 -79.5t-78.5 -32.5t-80 32.5t-33 79.5t32.5 79t80.5 32q47 0 78.5 -32t31.5 -79z" />
<glyph unicode="&#x3c;" d="M801 49l-647 572l645 571l98 -98l-547 -471l547 -467z" />
<glyph unicode="=" d="M117 379v127h893v-127h-893zM117 711v129h893v-129h-893z" />
<glyph unicode="&#x3e;" d="M328 49l-99 98l547 474l-547 466l97 105l647 -569z" />
<glyph unicode="?" horiz-adv-x="907" d="M500 90q0 -45 -31 -75.5t-78 -30.5t-77.5 30.5t-30.5 75.5q0 47 30.5 78t77.5 31t78 -31t31 -78zM774 1061q0 -84 -30.5 -143.5t-74.5 -108.5t-92.5 -93t-83 -97.5t-46 -123t17.5 -167.5h-150q-33 104 -24.5 179t41.5 133t79 104.5t89 91.5t73.5 94t30.5 114 q0 51 -29.5 97.5t-84 82.5t-132 57.5t-174.5 25.5l21 141q133 -4 238.5 -38t179 -86t112.5 -120.5t39 -142.5z" />
<glyph unicode="@" horiz-adv-x="2097" d="M1411 -266q-94 -27 -202.5 -42.5t-202.5 -15.5q-193 0 -347.5 56.5t-263 162t-165 254t-56.5 328.5q0 213 75 395.5t208 315.5t307 204.5t366 71.5q193 0 341.5 -57t247 -156.5t147.5 -228.5t49 -272q0 -139 -36 -253t-101.5 -193t-152.5 -121t-185 -42q-68 0 -117 21.5 t-79 59.5t-41 84t-5 95h-4q-18 -47 -48 -93t-71 -84t-92 -60.5t-111 -22.5q-111 0 -174 81t-63 222q0 119 31.5 225.5t94 188.5t156 128t213.5 46q66 0 129.5 -6t110.5 -14t45 -8l-88 -459q-27 -135 10 -205t125 -70q68 0 124 32t98 93.5t66 148.5t24 195q0 117 -37 224.5 t-116 193.5t-205 136t-296 50q-166 0 -312 -62t-257 -177t-172.5 -270.5t-61.5 -335.5q0 -160 46.5 -289t136.5 -220t222 -140.5t300 -49.5q88 0 181 14.5t190 39.5zM1239 893q-4 0 -13 2t-27.5 5t-44.5 5t-54 2q-78 0 -137.5 -40t-98.5 -105.5t-57.5 -141t-18.5 -147.5 q0 -100 30 -151.5t93 -51.5q92 0 177.5 132.5t128.5 365.5z" />
<glyph unicode="A" horiz-adv-x="1251" d="M682 1036q-18 55 -32.5 99.5t-28.5 91.5h-3q-14 -49 -28.5 -94.5t-30.5 -92.5l-207 -571h535zM1047 0l-121 342h-615l-121 -342h-143h-20l508 1382h184l506 -1382h-21h-157z" />
<glyph unicode="B" horiz-adv-x="1159" d="M885 391q0 66 -22.5 114t-70 80.5t-123 50t-182.5 17.5h-83.5t-59.5 -2v-520q27 -4 83 -7t105 -3q90 0 158 20.5t111 57.5t63.5 86t20.5 106zM838 1028q0 53 -15.5 95t-50.5 74t-95.5 50.5t-150.5 18.5q-33 0 -80 -2t-102 -4v-486q29 -2 58.5 -2h91.5q170 0 257 66.5 t87 189.5zM1051 403q0 -70 -28 -141.5t-89.5 -131.5t-165.5 -98t-250 -38q-59 0 -183 3t-149 3v1382q45 2 146.5 4.5t212.5 2.5q231 0 343.5 -89.5t112.5 -246.5q0 -111 -64.5 -198t-174.5 -126v-2q66 -10 119 -36.5t91 -68.5t58.5 -96.5t20.5 -122.5z" />
<glyph unicode="C" horiz-adv-x="1208" d="M1114 61q-82 -35 -183.5 -55t-205.5 -20q-158 0 -275.5 48t-195.5 137t-116 213t-38 275q0 160 40 294t122 233.5t210 155t300 55.5q78 0 165 -12.5t159 -32.5l-27 -146q-80 27 -162 42.5t-157 15.5q-123 0 -215.5 -44t-151.5 -124t-87 -184.5t-28 -225.5 q0 -272 123 -417.5t367 -145.5q82 0 170 19.5t155 52.5z" />
<glyph unicode="D" horiz-adv-x="1398" d="M1133 694q0 567 -564 568q-49 0 -87 -1t-138 -6v-1118q41 -6 97.5 -10t101.5 -4q133 0 240.5 35t186.5 105.5t121 178t42 252.5zM1296 705q0 -174 -56 -308.5t-159.5 -223.5t-245 -134t-313.5 -45q-76 0 -184.5 3t-151.5 3v1382q49 0 186.5 3.5t213.5 3.5q170 0 302 -41 t223 -125t138 -214t47 -304z" />
<glyph unicode="E" horiz-adv-x="1052" d="M186 0v1382h719v-127h-561v-479h516v-127h-516v-518h561v-131h-719z" />
<glyph unicode="F" horiz-adv-x="966" d="M344 1253v-485h508v-125h-508v-643h-158v1382h703v-129h-545z" />
<glyph unicode="G" horiz-adv-x="1402" d="M1227 59q-104 -39 -222 -58t-229 -19q-154 0 -282.5 46t-218 134t-135.5 215t-46 285q0 164 49.5 302t145.5 237t230 149.5t308 50.5q98 0 192.5 -15.5t186.5 -44.5l-35 -143q-90 35 -179 52.5t-183 17.5q-106 0 -206.5 -32t-178.5 -107.5t-119 -182t-45 -260.5 q0 -137 37 -242.5t108.5 -179.5t173 -110.5t222.5 -36.5q76 0 141.5 10t126.5 31v538h158v-637v0z" />
<glyph unicode="H" horiz-adv-x="1437" d="M1096 0v651h-752v-651h-158v1382h158v-600h752v600h155v-1382h-155z" />
<glyph unicode="I" horiz-adv-x="530" d="M186 0v1382h158v-1382h-158z" />
<glyph unicode="J" horiz-adv-x="706" d="M520 352q0 -178 -88 -272t-266 -94q-37 0 -84 5t-80 11v141q29 -10 78 -17t88 -7q47 0 82 11t60.5 38t40 75t14.5 119v1020h155v-1030z" />
<glyph unicode="K" horiz-adv-x="1185" d="M932 0l-588 694v-694h-158v1382h158v-661l590 661h190l-612 -665l637 -717h-217z" />
<glyph unicode="L" horiz-adv-x="870" d="M186 0v1382h158v-1251h512v-131h-670z" />
<glyph unicode="M" horiz-adv-x="1828" d="M1556 0l-118 858q-16 127 -27.5 222.5t-13.5 158.5h-4q-12 -49 -32 -114.5t-46 -143.5l-346 -981h-144l-325 928q-74 213 -99 311h-2q-4 -80 -13 -175t-21 -216l-99 -848h-157l182 1382h215l332 -936q20 -59 37.5 -118.5t29.5 -114.5h2q12 63 29.5 122.5t36.5 110.5 l330 936h225l190 -1382h-162z" />
<glyph unicode="N" horiz-adv-x="1421" d="M1081 0h-6l-543 852q-41 63 -71.5 114.5t-54 92.5t-43 75.5t-35.5 69.5h-4q2 -61 5 -159.5t6 -212t4 -230.5t1 -213v-389h-154v1382h154h45l512 -804q43 -68 73.5 -117t53.5 -89t39 -71t31 -61h4q-4 70 -7.5 164t-5.5 200.5t-3 216t-1 209.5v352h154v-1382h-154z" />
<glyph unicode="O" horiz-adv-x="1449" d="M1192 682q0 268 -120 426t-347 158q-98 0 -183 -37t-148.5 -108.5t-99.5 -178t-36 -240.5q0 -131 29.5 -238.5t89 -185t146.5 -119.5t202 -42q98 0 183 36.5t148.5 108.5t99.5 178.5t36 241.5zM1356 709q0 -172 -50.5 -308.5t-140.5 -229.5t-207.5 -141t-250.5 -48 q-145 0 -260 48t-194 139t-119 219t-40 286q0 172 50.5 308t140.5 229.5t207.5 141.5t250.5 48q145 0 260 -48t194 -139.5t119 -219t40 -285.5z" />
<glyph unicode="P" horiz-adv-x="1124" d="M889 940q0 147 -94.5 234.5t-282.5 87.5q-51 0 -98 -1t-70 -4v-632q23 -2 72 -7.5t102 -5.5q180 0 275.5 92.5t95.5 235.5zM1051 965q0 -102 -38 -190.5t-110 -153t-174 -100.5t-225 -36q-78 0 -160 7v-492h-158v1382q197 6 349 7q131 0 229 -33t161.5 -92.5t94.5 -135 t31 -163.5z" />
<glyph unicode="Q" horiz-adv-x="1449" d="M1448 -137q-82 -10 -145.5 -6t-112.5 16t-120 39t-101.5 38t-86 21.5t-124.5 10.5h-51q-145 0 -260 48t-194 139t-119 219t-40 286q0 172 50.5 308t140.5 229.5t207.5 141.5t250.5 48q145 0 260 -48t194 -139.5t119 -219.5t40 -285q0 -92 -15.5 -176t-44 -157 t-71.5 -132.5t-97.5 -104.5t-119.5 -71q43 0 93 -15.5t99 -32t108.5 -22.5t139.5 2v-137zM1192 682q0 268 -120 426t-347 158q-98 0 -183 -37t-148.5 -108.5t-99.5 -178t-36 -240.5q0 -131 29.5 -238.5t89 -185t146.5 -119.5t202 -42q98 0 183 36.5t148.5 108.5t99.5 178.5 t36 241.5z" />
<glyph unicode="R" horiz-adv-x="1155" d="M840 1001q0 127 -85 195t-243 68q-82 0 -168 -7v-522q20 0 66.5 -1t93.5 -1q162 0 249 70.5t87 197.5zM901 0l-446 614h-111v-614h-158v1380q45 2 142.5 5.5t199.5 3.5q106 0 193.5 -21.5t151 -67t97.5 -115t34 -163.5q0 -90 -30 -159.5t-83 -119t-122 -77t-148 -37.5 q16 -16 48.5 -57.5t67.5 -88.5l361 -483h-197z" />
<glyph unicode="S" horiz-adv-x="1032" d="M922 383q0 -88 -33 -160.5t-96.5 -127t-156.5 -84t-212 -29.5q-80 0 -160 11t-145 30l22 149q66 -25 142.5 -39t150.5 -14q72 0 131.5 14t102.5 44t66.5 77t23.5 113q0 78 -43 129t-98.5 79.5t-169 76.5t-180 91t-110.5 113t-44 174q0 82 31.5 149.5t92 118t148.5 77 t197 26.5q59 0 124.5 -7.5t122.5 -19.5l-18 -141q-57 16 -119.5 26.5t-122.5 10.5q-145 0 -221 -59.5t-76 -166.5q0 -76 44 -126t97.5 -76.5t169 -75.5t183.5 -93t112 -115t44 -175z" />
<glyph unicode="T" horiz-adv-x="1062" d="M608 1251v-1251h-155v1251h-414v131h985v-131h-416z" />
<glyph unicode="U" horiz-adv-x="1427" d="M1241 524q0 -266 -138 -404t-407 -138q-154 0 -255 38.5t-156.5 106.5t-77 150.5t-21.5 181.5v923h158v-909q0 -80 16.5 -144.5t56.5 -113.5t111.5 -76.5t180.5 -27.5q195 0 286.5 92t91.5 309v870h154v-858z" />
<glyph unicode="V" horiz-adv-x="1255" d="M717 0h-185l-503 1382h176l330 -925q25 -72 49 -152t45 -147h2q18 68 44.5 146.5t55.5 160.5l330 917h164z" />
<glyph unicode="W" horiz-adv-x="1953" d="M1501 0h-198l-283 971q-12 49 -24.5 99t-20.5 97h-2q-20 -121 -41 -196l-277 -971h-198l-379 1382h168l260 -952q20 -84 33.5 -149.5t25.5 -128.5h2q14 76 28.5 140t31.5 128l274 962h158l287 -979q16 -59 32.5 -124.5t28.5 -126.5h2q8 57 19.5 112t25.5 115l268 1003 h154z" />
<glyph unicode="X" horiz-adv-x="1202" d="M967 0l-375 596l-371 -596h-180l459 715l-430 667h180l346 -546l340 546h176l-422 -659l471 -723h-194z" />
<glyph unicode="Y" horiz-adv-x="1079" d="M616 541v-541h-155v541l-453 841h174l252 -475q31 -61 56.5 -114.5t52.5 -114.5h2q27 59 54.5 118.5t57.5 114.5l248 471h166z" />
<glyph unicode="Z" horiz-adv-x="1105" d="M94 0v115l613 952q29 43 62.5 92t59.5 88q-66 -2 -144.5 -3t-178.5 -1h-389v139h891v-116l-646 -996q-16 -27 -47.5 -72.5t-40.5 -60.5q31 4 112 5t251 1h377v-143h-920z" />
<glyph unicode="[" horiz-adv-x="653" d="M188 -401v1976h387v-117h-245v-1741h245v-118h-387z" />
<glyph unicode="\" horiz-adv-x="874" d="M743 -330l-716 1880h145l717 -1880h-146z" />
<glyph unicode="]" horiz-adv-x="653" d="M80 -401v118h244v1741h-244v117h387v-1976h-387z" />
<glyph unicode="^" d="M844 707l-305 557l-293 -557l-107 57l340 618h127l355 -614z" />
<glyph unicode="_" d="M0 -512v121h1126v-121h-1126z" />
<glyph unicode="`" horiz-adv-x="716" d="M455 1174l-271 262l101 94l247 -283z" />
<glyph unicode="a" horiz-adv-x="1064" d="M723 485q-131 0 -222 -16t-144.5 -46t-77 -67t-23.5 -82q0 -74 46 -121t122 -47q63 0 119.5 30t96.5 80t61.5 112.5t21.5 126.5v30zM729 0q0 78 2 127t8 88h-4q-18 -49 -52 -91t-80 -75t-102.5 -50t-119.5 -17q-123 0 -201 73.5t-78 196.5q0 160 162 253t459 93v61 q0 131 -52.5 192.5t-176.5 61.5q-70 0 -153 -19.5t-157 -51.5l-28 121q84 35 175 54t181 19q100 0 170 -24.5t113 -70.5t62.5 -111.5t19.5 -149.5v-375v-116t1 -98t3 -91h-152z" />
<glyph unicode="b" horiz-adv-x="1142" d="M887 543q0 174 -58.5 270t-185.5 96q-78 0 -134 -40t-94 -101t-56.5 -135t-18.5 -141v-357q86 -27 199 -26q80 0 143 24.5t109.5 76.5t71 135t24.5 198zM1049 555q0 -135 -37 -241.5t-105.5 -178.5t-166 -109.5t-216.5 -37.5q-104 0 -182 8t-156 31v1468h154v-516 q0 -43 -4 -95.5t-14 -90.5l4 -2q45 117 136 181t212 64q180 0 277.5 -121.5t97.5 -359.5z" />
<glyph unicode="c" horiz-adv-x="901" d="M842 43q-66 -27 -148 -42t-164 -15q-92 0 -169.5 23.5t-139 78.5t-96.5 150.5t-35 234.5q0 125 32 228.5t93 177t152.5 113.5t207.5 40q147 0 261 -45l-31 -131q-55 23 -119.5 36t-128.5 13q-72 0 -129 -29.5t-96 -84t-59.5 -128t-20.5 -163.5q0 -84 15.5 -151.5t50 -120 t95 -82t148.5 -29.5q139 0 252 53z" />
<glyph unicode="d" horiz-adv-x="1142" d="M803 885q-104 25 -201 24q-158 2 -251 -101t-95 -333q0 -174 60.5 -270t183.5 -96q76 0 134 39.5t95 102t55.5 135.5t18.5 140v359zM805 0q0 47 4 110.5t14 110.5l-4 2q-43 -111 -137 -176t-213 -65q-188 0 -281.5 129t-93.5 352q0 135 37 241.5t105.5 178t164 109.5 t213.5 38q45 0 90.5 -3t98.5 -7v475h153v-1495h-151z" />
<glyph unicode="e" horiz-adv-x="1034" d="M776 625q2 139 -63.5 216t-184.5 77q-109 0 -183.5 -77t-90.5 -216h522zM934 621q0 -35 -1 -66t-3 -43h-680q-2 -207 80 -305t252 -98q74 0 147.5 13t151.5 42l22 -121q-180 -61 -342 -61q-233 0 -352 129t-119 393q0 113 31 211t89 169.5t141 111.5t188 40 q102 0 178 -31.5t124 -89t70.5 -133t22.5 -161.5z" />
<glyph unicode="f" horiz-adv-x="712" d="M774 1358q-20 6 -65 14t-95 8q-117 0 -171 -69.5t-54 -218.5v-74h301v-121h-301v-897h-153v897h-222v121h222v65q0 213 101 317.5t286 104.5q82 0 165 -16z" />
<glyph unicode="g" horiz-adv-x="1087" d="M872 -172q0 86 -60 133t-194 51l-176 6l-53 5q-74 -45 -111.5 -102.5t-37.5 -119.5q0 -49 20.5 -88t58 -65.5t92 -40t121.5 -13.5q164 0 252 65t88 169zM768 674q0 109 -65.5 176.5t-180.5 67.5q-113 0 -178 -68t-65 -176q0 -109 65.5 -176.5t177.5 -67.5 q115 0 180.5 67.5t65.5 176.5zM1028 -152q0 -82 -37 -151.5t-104.5 -119.5t-164.5 -76.5t-214 -26.5q-201 0 -314.5 78.5t-113.5 222.5q0 86 50 159.5t128 124.5q-45 23 -67.5 60t-22.5 84q0 49 27.5 91t80.5 79q-74 47 -111.5 122.5t-37.5 163.5q0 80 26.5 149t79 120 t128 79.5t174.5 28.5q35 0 69.5 -5t67.5 -13h342v-121h-166q35 -43 53.5 -95t18.5 -112q0 -80 -27 -148.5t-79 -119.5t-128 -80t-174 -29q-33 0 -62.5 3t-58.5 10q-31 -20 -48 -44t-17 -49q0 -37 37.5 -58t125.5 -23l170 -7q184 -6 276.5 -84t92.5 -213z" />
<glyph unicode="h" horiz-adv-x="1181" d="M842 0v657q0 121 -40 186.5t-151 65.5q-68 0 -125 -31.5t-99 -89t-64.5 -134t-22.5 -167.5v-487h-154v1495h154v-500q0 -51 -3 -103t-13 -99l4 -2q45 113 137 179t225 66q88 0 146.5 -25.5t93.5 -69.5t50 -104.5t15 -127.5v-709h-153z" />
<glyph unicode="i" horiz-adv-x="526" d="M186 0v1018h154v-1018h-154zM371 1346q0 -43 -32 -74t-75 -31q-45 0 -75.5 29.5t-30.5 75.5q0 43 30.5 73.5t75.5 30.5q43 0 75 -29.5t32 -74.5z" />
<glyph unicode="j" horiz-adv-x="542" d="M354 -129q0 -102 -17.5 -176t-57 -124t-99 -72.5t-145.5 -22.5q-33 0 -73 4t-79 12l15 135q29 -10 70.5 -16t76.5 -6q47 0 76 12t47 41t26.5 79t8.5 124v1157h151v-1147v0zM385 1346q0 -43 -30.5 -74t-75.5 -31q-43 0 -74 29.5t-31 75.5q0 43 31 73.5t74 30.5 q45 0 75.5 -29.5t30.5 -74.5z" />
<glyph unicode="k" horiz-adv-x="987" d="M741 0l-401 535v-535h-154v1495h154v-934l383 457h178l-399 -459l438 -559h-199z" />
<glyph unicode="l" horiz-adv-x="526" d="M186 0v1495h154v-1495h-154z" />
<glyph unicode="m" horiz-adv-x="1810" d="M1470 0v655q0 61 -8 107.5t-28.5 79t-57.5 50t-90 17.5q-59 0 -113.5 -29.5t-98.5 -86t-68.5 -135t-24.5 -175.5v-483h-152v657q0 57 -7 101.5t-27.5 78t-57.5 53t-92 19.5q-61 0 -117.5 -30.5t-98.5 -88t-65.5 -136.5t-23.5 -171v-483h-154v1018h152q0 -59 -4 -121.5 t-12 -105.5l4 -3q43 115 138 181.5t220 66.5q82 0 137.5 -25.5t87 -63.5t45 -79t15.5 -75q16 41 44.5 81.5t71.5 77.5t103.5 60.5t134.5 23.5q145 0 223 -82t78 -249v-705h-154z" />
<glyph unicode="n" horiz-adv-x="1181" d="M842 0v657q0 127 -42 189.5t-149 62.5q-68 0 -125 -31.5t-99 -89t-64.5 -134t-22.5 -167.5v-487h-154v1018h152q0 -53 -4 -117.5t-12 -109.5l4 -3q45 115 139 181.5t225 66.5q84 0 143.5 -24.5t95.5 -68.5t51 -103.5t15 -130.5v-709h-153z" />
<glyph unicode="o" horiz-adv-x="1110" d="M864 510q0 188 -82 293.5t-225 105.5q-70 0 -127 -25.5t-98 -76.5t-62.5 -126t-21.5 -173q0 -188 81 -292.5t224 -104.5q68 0 124 23.5t98 72.5t65.5 125t23.5 178zM1022 520q0 -113 -30.5 -211t-92 -172t-153 -114.5t-207.5 -40.5q-102 0 -185.5 31.5t-142.5 96t-91 162 t-32 226.5q0 113 32 211t93 171.5t152.5 114.5t207.5 41q102 0 185.5 -31.5t141.5 -96t90 -162t32 -226.5z" />
<glyph unicode="p" horiz-adv-x="1142" d="M887 543q0 176 -60.5 271t-183.5 95q-74 0 -131 -37.5t-95 -100t-57.5 -136.5t-19.5 -143v-357q86 -27 199 -26q80 0 144.5 25.5t109.5 77.5t69.5 135t24.5 196zM1049 555q0 -270 -138.5 -418.5t-382.5 -148.5q-57 0 -99 3t-89 11v-512h-154v1528h152q0 -55 -4 -117.5 t-12 -103.5l4 -2q43 113 135 177t213 64q180 0 277.5 -122.5t97.5 -358.5z" />
<glyph unicode="q" horiz-adv-x="1142" d="M803 887q-102 25 -199 24q-80 0 -143.5 -24.5t-109.5 -77.5t-70.5 -136t-24.5 -198q0 -174 58.5 -270t185.5 -96q76 0 133 39.5t95 101t56.5 136.5t18.5 142v359zM803 -510v555q0 33 2 81t12 95h-4q-41 -111 -132 -175t-210 -64q-180 0 -278.5 119.5t-98.5 359.5 q0 137 37 243.5t105.5 179t167 110.5t221.5 38q86 0 170 -7t161 -21v-1514h-153z" />
<glyph unicode="r" horiz-adv-x="724" d="M672 883q-170 29 -251 -94t-81 -381v-408h-154v1018h152q0 -51 -6 -121t-17 -135l2 -2q14 55 43 108.5t73 93t104.5 60t140.5 12.5z" />
<glyph unicode="s" horiz-adv-x="876" d="M768 287q0 -63 -26.5 -118.5t-79 -97.5t-130 -65.5t-174.5 -23.5q-61 0 -126.5 8t-116.5 20l14 142q51 -18 118.5 -30.5t127.5 -12.5q113 0 174 44t61 121q0 57 -33.5 91t-70.5 49.5t-129 48.5t-145.5 63.5t-87 85t-33.5 138.5q0 61 24.5 112t74.5 91t123 61.5t167 21.5 q49 0 101 -5t101 -15l-14 -131q-47 14 -100 22t-105 8q-106 0 -161.5 -40.5t-55.5 -112.5q0 -55 34 -90t71 -50.5t130 -48t145 -63.5t87 -85t35 -138z" />
<glyph unicode="t" horiz-adv-x="757" d="M688 6q-43 -10 -95 -16t-97 -6q-76 0 -126.5 17t-81 54t-44 93.5t-13.5 138.5v610h-217v121h217v338l154 43v-381h297v-121h-297v-567q0 -63 7 -104.5t23.5 -65t45 -33.5t74.5 -10q76 0 141 16z" />
<glyph unicode="u" horiz-adv-x="1181" d="M844 0q0 51 4 115.5t12 111.5l-4 2q-43 -113 -136 -180t-228 -67q-88 0 -146.5 25.5t-94.5 69.5t-50.5 104.5t-14.5 127.5v709h154v-658q0 -121 40 -186t150 -65q68 0 125.5 31.5t99.5 88t64.5 134t22.5 167.5v488h153v-1018h-151z" />
<glyph unicode="v" horiz-adv-x="978" d="M571 0h-172l-376 1018h172l237 -674q23 -70 32 -97.5t25 -90.5h3q16 57 25 87.5t30 94.5l244 680h165z" />
<glyph unicode="w" horiz-adv-x="1622" d="M1251 0h-178l-223 662q-16 49 -30.5 99t-26.5 97h-2q-12 -55 -34 -131t-38 -129l-187 -598h-180l-313 1018h172l176 -617q10 -39 33.5 -125t32.5 -120h2q12 55 29.5 118.5t37.5 128.5l195 615h176l199 -615q14 -47 25 -82.5t19.5 -64.5t14.5 -53.5t12 -48.5h4 q10 47 26.5 105t41.5 142l184 617h164z" />
<glyph unicode="x" horiz-adv-x="1054" d="M801 0l-281 410l-280 -410h-191l385 510l-364 508h190l272 -402l279 402h176l-364 -502l381 -516h-203z" />
<glyph unicode="y" horiz-adv-x="964" d="M526 -96q-45 -121 -92 -203t-102.5 -132t-124 -72.5t-154.5 -22.5q-33 0 -62.5 4t-43.5 8l16 133q14 -4 48 -9t71 -5q47 0 85 13t71.5 45t64.5 85t62 133l47 119l-389 1018h176l213 -586q25 -70 43 -128t37 -120h2q12 49 38.5 131t61.5 181l182 522h168z" />
<glyph unicode="z" horiz-adv-x="913" d="M100 0v109l518 776q-55 -2 -131.5 -3t-156.5 -1h-219v137h684v-107l-514 -774q47 2 136 3t158 1h230v-141h-705z" />
<glyph unicode="{" horiz-adv-x="681" d="M569 -401q-162 0 -230.5 92t-68.5 284v392q0 59 -11 100t-36.5 66.5t-67.5 39t-106 17.5v123q66 4 108 16t67.5 37t35.5 64.5t10 103.5v266q0 82 15.5 149.5t49.5 118t92 79t142 28.5h35v-117q-55 0 -92 -13t-58.5 -42t-31.5 -76t-10 -121v-262q0 -254 -191 -291v-2 q94 -14 142.5 -91t48.5 -204v-387q0 -74 10 -121t31.5 -75.5t58.5 -42t92 -13.5v-118h-35z" />
<glyph unicode="|" horiz-adv-x="581" d="M229 -510v2048h121v-2048h-121z" />
<glyph unicode="}" horiz-adv-x="681" d="M633 590q-63 -4 -105.5 -17.5t-68 -39t-36.5 -66.5t-11 -100v-392q0 -193 -69 -284.5t-230 -91.5h-35v118q55 0 92 13.5t58.5 42t31.5 76t10 120.5v387q0 127 48.5 204t142.5 91v2q-96 14 -143.5 87t-47.5 194v272q0 74 -10 121t-31.5 76t-58.5 42t-92 13v117h35 q84 0 142 -28.5t92 -79t49.5 -118t15.5 -149.5v-256q0 -68 10 -109.5t35.5 -67.5t66.5 -38t109 -16v-123z" />
<glyph unicode="~" d="M1010 1155q0 -129 -71 -210t-189 -81q-76 0 -124 31t-96.5 90t-78 85t-80.5 26q-66 0 -99.5 -51.5t-35.5 -137.5h-115v13q0 131 70.5 210.5t189.5 79.5q76 0 124 -30.5t96 -90t78 -85t81 -25.5q66 0 99.5 51t35.5 139h115v-14z" />
<glyph unicode="&#xa1;" horiz-adv-x="653" d="M215 -418l29 1108h127l28 -1108h-184zM418 928q0 -47 -32 -78t-79 -31t-77.5 31t-30.5 78q0 45 30.5 75.5t77.5 30.5t79 -30.5t32 -75.5z" />
<glyph unicode="&#xa2;" horiz-adv-x="933" d="M852 283q-49 -23 -110.5 -39.5t-125.5 -20.5v-274h-122v274q-193 14 -293.5 138t-100.5 344q0 98 27 183t77 149.5t123.5 105.5t166.5 53v234h122v-226q57 -2 117 -13t111 -32l-21 -133q-102 51 -235 51q-156 0 -242 -96t-86 -268q0 -78 16.5 -142.5t53.5 -113.5 t100.5 -77t155.5 -28q61 0 124.5 15.5t118.5 44.5z" />
<glyph unicode="&#xa3;" horiz-adv-x="960" d="M88 0v109q61 49 102 93t66 91t35 98t10 113q0 29 -2 68.5t-10 101.5h-228v121h211q-10 63 -18 127.5t-8 117.5q0 174 98 266.5t279 92.5q49 0 105 -6.5t103 -20.5l-26 -133q-45 16 -94 25.5t-97 9.5q-100 0 -156.5 -56.5t-56.5 -160.5q0 -39 6.5 -107.5t18.5 -154.5h324 v-121h-308q6 -47 8.5 -84t2.5 -70q0 -66 -8.5 -119t-30 -99t-57 -88t-89.5 -89q41 6 97.5 9t107.5 3h424v-137h-809z" />
<glyph unicode="&#xa4;" d="M782 684q0 104 -51 175t-174 71q-92 0 -152.5 -66.5t-60.5 -183.5q0 -53 11.5 -101.5t38 -83t69.5 -55t104 -20.5q43 0 82 18.5t69 52t47 83t17 110.5zM905 133l-166 225q-84 -55 -192 -55q-88 0 -150 31l-149 -201l-111 82l152 188q-41 47 -62.5 114t-21.5 159 q0 78 24.5 144.5t69.5 113.5l-162 201l109 82l155 -211q74 41 174 41q41 0 88.5 -8.5t88.5 -30.5l157 209l107 -84l-164 -203q31 -41 50.5 -100.5t19.5 -143.5q0 -154 -84 -250l178 -219z" />
<glyph unicode="&#xa5;" horiz-adv-x="1204" d="M717 582h307v-109h-344v-151h344v-111h-344v-211h-156v211h-346v111h346v151h-346v109h307l-395 800h172l234 -487q31 -61 54 -118.5t52 -133.5h4q23 66 53.5 133.5t67.5 141.5l229 464h166z" />
<glyph unicode="&#xa6;" horiz-adv-x="581" d="M229 -510v774h121v-774h-121zM229 784v754h121v-754h-121z" />
<glyph unicode="&#xa7;" horiz-adv-x="1056" d="M721 451q0 61 -29.5 118.5t-76 111.5t-102.5 108.5t-110 113.5q-53 -37 -74.5 -84t-21.5 -94q0 -61 29 -116.5t74 -110t101 -109.5t114 -115q51 35 73.5 82.5t22.5 94.5zM868 471q0 -168 -161 -287q35 -47 57 -100t22 -113q0 -59 -22.5 -114.5t-66.5 -98.5t-111.5 -68.5 t-157.5 -25.5q-33 0 -75 6t-83 17l15 131q47 -14 80.5 -20.5t70.5 -6.5q92 0 141.5 48t49.5 122q0 57 -35 111.5t-86 109t-112.5 111.5t-113 120.5t-86 135.5t-34.5 156q0 166 162 288q-37 49 -59.5 101.5t-22.5 111.5q0 61 20.5 115.5t63.5 95.5t107.5 64.5t152.5 23.5 q35 0 74.5 -4t74.5 -12l-14 -131q-39 12 -71 17t-68 5q-90 0 -134.5 -43t-44.5 -118q0 -57 35 -110.5t86 -110t112.5 -114t113 -122t86 -137t34.5 -154.5z" />
<glyph unicode="&#xa8;" horiz-adv-x="948" d="M379 1346q0 -41 -27.5 -70t-68.5 -29t-70 29t-29 70t29 68.5t70 27.5t68.5 -27.5t27.5 -68.5zM764 1346q0 -41 -27.5 -70t-68.5 -29t-70 29t-29 70t29 68.5t70 27.5t68.5 -27.5t27.5 -68.5z" />
<glyph unicode="&#xa9;" horiz-adv-x="1542" d="M969 358q-92 -35 -201 -34q-86 0 -147.5 26.5t-100.5 73.5t-56.5 111.5t-17.5 140.5q0 74 18.5 141.5t61.5 119.5t111 83t166 31q45 0 84 -7.5t74 -17.5l-13 -115q-70 33 -153 33q-59 0 -99.5 -20.5t-65 -55t-35.5 -83t-11 -103.5q0 -117 48 -181.5t154 -64.5 q90 0 168 31l15 -109v0zM1325 684q0 115 -44 217.5t-119 179t-176 121.5t-218 45t-218 -44t-176 -118.5t-119 -177t-44 -219.5t44 -219t119 -179t176 -121t218 -44t218 44t176 120t119 177t44 218zM1450 688q0 -141 -53.5 -265t-146.5 -217t-217 -146.5t-265 -53.5 q-145 0 -270 53.5t-217.5 144.5t-144.5 215t-52 265t53 266t146.5 217.5t218.5 145.5t266 53t266 -52t217 -144.5t145.5 -216.5t53.5 -265z" />
<glyph unicode="&#xaa;" horiz-adv-x="784" d="M506 1024q-147 0 -207.5 -31.5t-60.5 -95.5q0 -41 24.5 -63.5t69.5 -22.5q43 0 76.5 20.5t55 52t32 64.5t10.5 58v18zM123 461v123h571v-123h-571zM504 719q0 25 3 54.5t9 55.5h-2q-27 -57 -83 -90.5t-126 -33.5q-96 0 -147.5 48t-51.5 126q0 111 102.5 174t297.5 63v39 q0 25 -5 47.5t-19.5 42t-43 31.5t-73.5 12q-53 0 -107.5 -13t-101.5 -38l-11 117q51 20 112.5 31.5t127.5 11.5q70 0 119 -18.5t78.5 -49.5t42 -70.5t12.5 -87.5v-136v-138q0 -53 1 -103.5t1 -74.5h-135z" />
<glyph unicode="&#xab;" horiz-adv-x="1021" d="M356 246l-235 354l237 363l113 -64l-195 -297l197 -291zM748 248l-254 352l256 358l112 -63l-211 -293l211 -289z" />
<glyph unicode="&#xac;" d="M848 217v328h-760v129h893v-457h-133z" />
<glyph unicode="&#xae;" horiz-adv-x="1150" d="M645 1186q0 33 -17.5 48t-60.5 15h-47v-139h31q53 0 73.5 24.5t20.5 51.5zM647 848l-121 203h-6v-203h-90v471h152q86 0 121.5 -33t35.5 -88q0 -59 -31.5 -93t-84.5 -42q8 -10 19 -26.5t24 -37.5l94 -151h-113zM905 1077q0 70 -25.5 131.5t-70.5 107.5t-105.5 73.5 t-128.5 27.5q-70 0 -130 -26.5t-105 -71.5t-70.5 -105.5t-25.5 -128.5q0 -70 25.5 -131t70.5 -107t105.5 -74t129.5 -28q68 0 130.5 27t105.5 72t68.5 105t25.5 128zM1014 1081q0 -90 -35 -170t-95.5 -139t-140 -94t-168.5 -35q-94 0 -173.5 34t-139 93t-93.5 139t-34 172 q0 90 35 170t94.5 139.5t139 94.5t171.5 35t172 -34t139.5 -92.5t93.5 -139.5t34 -173z" />
<glyph unicode="&#xaf;" horiz-adv-x="870" d="M184 1276v117h502v-117h-502z" />
<glyph unicode="&#xb0;" horiz-adv-x="759" d="M512 1255q0 25 -6 50.5t-21.5 47t-42 36t-65.5 14.5q-57 0 -95 -41t-38 -107q0 -68 35.5 -106.5t95.5 -38.5q59 0 98 41t39 104zM637 1257q0 -59 -22.5 -105t-60.5 -79t-86 -50t-99 -17q-117 0 -183.5 66.5t-66.5 180.5q0 57 21.5 104.5t59.5 81.5t85 51t96 17 q66 0 114 -20.5t79.5 -55t47 -80t15.5 -94.5z" />
<glyph unicode="&#xb1;" d="M90 0v129h946v-129h-946zM635 678v-412h-143v412h-404v129h404v410h143v-410h403v-129h-403z" />
<glyph unicode="&#xb2;" horiz-adv-x="718" d="M84 752v106l207 207q82 82 121 147.5t39 126.5q0 68 -38 112t-118 44q-47 0 -95 -14.5t-83 -34.5l-25 108q47 23 108.5 39.5t127.5 16.5q131 0 202.5 -67.5t71.5 -178.5q0 -92 -42 -170t-132 -168l-158 -156q72 4 167 4h202v-122h-555z" />
<glyph unicode="&#xb3;" horiz-adv-x="698" d="M598 1006q0 -61 -26.5 -110.5t-72.5 -85.5t-110.5 -55.5t-140.5 -19.5q-39 0 -84 5t-84 14l16 116q33 -10 76 -17t86 -7q92 0 141.5 41t49.5 106q0 76 -76 116t-236 19v107q135 0 209 32.5t74 118.5q0 55 -38 85t-106 30q-90 0 -165 -35l-19 107q104 37 213 37 q121 0 190.5 -52.5t69.5 -154.5q0 -150 -143 -199q84 -16 130 -71t46 -127z" />
<glyph unicode="&#xb4;" horiz-adv-x="716" d="M262 1174l-78 73l248 283l100 -94z" />
<glyph unicode="&#xb6;" horiz-adv-x="1165" d="M588 520q-113 0 -197 34t-139 94.5t-82 139t-27 168.5t32 168t90.5 135.5t140 90t182.5 32.5v-862v0zM885 1266v-1463h-297v117h153v1462h291v-116h-147z" />
<glyph unicode="&#xb7;" horiz-adv-x="450" d="M342 608q0 -49 -34 -82.5t-83 -33.5t-82.5 33.5t-33.5 82.5t33.5 83t82.5 34t83 -34t34 -83z" />
<glyph unicode="&#xb8;" horiz-adv-x="606" d="M360 -84q74 -96 60 -192.5t-107 -204.5h-129q43 53 67.5 96t30 82t-8 79t-50.5 83z" />
<glyph unicode="&#xb9;" horiz-adv-x="548" d="M248 752v706l-189 -63l-24 114l239 86h119v-843h-145z" />
<glyph unicode="&#xba;" horiz-adv-x="854" d="M602 1053q0 55 -12 98t-35 72.5t-54.5 45t-72.5 15.5t-73.5 -15.5t-56.5 -44t-36 -72.5t-12 -99t12 -98.5t34.5 -73t55.5 -45t74 -15.5q82 0 129 59.5t47 172.5zM139 461v123h576v-123h-576zM743 1061q0 -76 -21.5 -140.5t-63.5 -112.5t-103 -74.5t-141 -26.5 q-143 0 -224 85t-81 252q0 74 21.5 138.5t63.5 114t104 76t140 26.5q70 0 126.5 -20.5t96 -62.5t61 -106.5t21.5 -148.5z" />
<glyph unicode="&#xbb;" horiz-adv-x="1021" d="M270 248l-110 63l211 293l-209 289l114 65l252 -352zM662 246l-113 63l196 295l-194 293l117 66l233 -357z" />
<glyph unicode="&#xbc;" horiz-adv-x="1658" d="M248 752v706l-189 -63l-24 114l239 86h119v-843h-145zM189 -281l-105 72l1301 1851l102 -71zM1436 -17v-192h-137v192h-398l-10 96l344 555h201v-534h139v-117h-139zM1299 530l-269 -434q27 2 64 3t75.5 1h72.5h57v430z" />
<glyph unicode="&#xbd;" horiz-adv-x="1716" d="M248 752v706l-189 -63l-24 114l239 86h119v-843h-145zM189 -281l-105 72l1301 1851l102 -71zM1055 -209v106l207 207q82 82 121 147.5t39 126.5q0 68 -38 112t-118 44q-47 0 -95 -14.5t-83 -34.5l-25 108q47 23 108.5 39.5t127.5 16.5q131 0 202.5 -67.5t71.5 -178.5 q0 -92 -42 -170t-132 -168l-158 -156q72 4 167 4h202v-122h-555z" />
<glyph unicode="&#xbe;" horiz-adv-x="1701" d="M232 -281l-105 72l1301 1851l102 -71zM598 1006q0 -61 -26.5 -110.5t-72.5 -85.5t-110.5 -55.5t-140.5 -19.5q-39 0 -84 5t-84 14l16 116q33 -10 76 -17t86 -7q92 0 141.5 41t49.5 106q0 76 -76 116t-236 19v107q135 0 209 32.5t74 118.5q0 55 -38 85t-106 30 q-90 0 -165 -35l-19 107q104 37 213 37q121 0 190.5 -52.5t69.5 -154.5q0 -150 -143 -199q84 -16 130 -71t46 -127zM1481 -17v-192h-137v192h-398l-10 96l344 555h201v-534h139v-117h-139zM1344 530l-269 -434q27 2 64 3t75.5 1h72.5h57v430z" />
<glyph unicode="&#xbf;" horiz-adv-x="907" d="M702 -430q-129 4 -234.5 37t-181 86t-114.5 121.5t-39 142.5q0 78 27.5 137.5t56.5 90t99.5 101t102.5 121t41 120t-18 163.5h152q31 -98 23.5 -174t-38 -131t-80.5 -108.5t-96.5 -99.5t-73 -95t-26.5 -109q0 -51 29.5 -97t85 -82t133.5 -57.5t172 -25.5zM627 928 q0 -45 -32 -77t-79 -32q-45 0 -76.5 32t-31.5 77t31.5 75.5t76.5 30.5q47 0 79 -30.5t32 -75.5z" />
<glyph unicode="&#xc0;" horiz-adv-x="1251" d="M682 1036q-18 55 -32.5 99.5t-28.5 91.5h-3q-14 -49 -28.5 -94.5t-30.5 -92.5l-207 -571h535zM1047 0l-121 342h-615l-121 -342h-143h-20l508 1382h184l506 -1382h-21h-157zM711 1493l-369 117l49 125l353 -152z" />
<glyph unicode="&#xc1;" horiz-adv-x="1251" d="M682 1036q-18 55 -32.5 99.5t-28.5 91.5h-3q-14 -49 -28.5 -94.5t-30.5 -92.5l-207 -571h535zM1047 0l-121 342h-615l-121 -342h-143h-20l508 1382h184l506 -1382h-21h-157zM524 1493l-33 90l353 152l49 -125z" />
<glyph unicode="&#xc2;" horiz-adv-x="1251" d="M682 1036q-18 55 -32.5 99.5t-28.5 91.5h-3q-14 -49 -28.5 -94.5t-30.5 -92.5l-207 -571h535zM1047 0l-121 342h-615l-121 -342h-143h-20l508 1382h184l506 -1382h-21h-157zM897 1489l-272 127l-275 -127l-45 92l322 168l317 -166z" />
<glyph unicode="&#xc3;" horiz-adv-x="1251" d="M682 1036q-18 55 -32.5 99.5t-28.5 91.5h-3q-14 -49 -28.5 -94.5t-30.5 -92.5l-207 -571h535zM1047 0l-121 342h-615l-121 -342h-143h-20l508 1382h184l506 -1382h-21h-157zM983 1655q-82 -143 -219 -144q-51 0 -88 17.5t-67 38t-57.5 38t-62.5 17.5q-74 0 -131 -94 l-82 59q39 70 94.5 107t124.5 37q51 0 88 -17.5t67 -38t57.5 -38t62.5 -17.5q72 0 131 94l82 -59v0z" />
<glyph unicode="&#xc4;" horiz-adv-x="1251" d="M682 1036q-18 55 -32.5 99.5t-28.5 91.5h-3q-14 -49 -28.5 -94.5t-30.5 -92.5l-207 -571h535zM1047 0l-121 342h-615l-121 -342h-143h-20l508 1382h184l506 -1382h-21h-157zM502 1595q-2 -43 -26.5 -68.5t-69.5 -27.5q-43 2 -69 28.5t-28 67.5q2 41 29 68t68 29 q43 -2 68.5 -29t27.5 -68zM938 1595q-2 -45 -30.5 -70.5t-67.5 -25.5q-45 2 -68.5 28.5t-25.5 67.5q2 41 28.5 69t65.5 28q41 -2 68.5 -27t29.5 -70z" />
<glyph unicode="&#xc5;" horiz-adv-x="1251" d="M682 1036q-18 55 -32.5 99.5t-28.5 91.5h-3q-14 -49 -28.5 -94.5t-30.5 -92.5l-207 -571h535zM1047 0l-121 342h-615l-121 -342h-143h-20l508 1382h184l506 -1382h-21h-157zM860 1675q0 -92 -62.5 -154.5t-173.5 -62.5q-100 0 -158.5 51.5t-58.5 155.5q0 92 62.5 153.5 t173.5 61.5q100 0 158.5 -50.5t58.5 -154.5zM739 1669q0 119 -106 119q-41 0 -74 -28.5t-33 -88.5q0 -119 107 -119q41 0 73.5 29t32.5 88z" />
<glyph unicode="&#xc6;" horiz-adv-x="1595" d="M750 1255h-13q-31 -66 -61.5 -128t-79.5 -152l-277 -504h431v784zM750 0v346h-490l-186 -346h-164l754 1382h774v-127h-535v-479h498v-127h-498v-518h545v-131h-698z" />
<glyph unicode="&#xc7;" horiz-adv-x="1208" d="M1114 61q-82 -35 -183.5 -55t-205.5 -20q-158 0 -275.5 48t-195.5 137t-116 213t-38 275q0 160 40 294t122 233.5t210 155t300 55.5q78 0 165 -12.5t159 -32.5l-27 -146q-80 27 -162 42.5t-157 15.5q-123 0 -215.5 -44t-151.5 -124t-87 -184.5t-28 -225.5 q0 -272 123 -417.5t367 -145.5q82 0 170 19.5t155 52.5zM731 -84q74 -96 60 -192.5t-107 -204.5h-129q43 53 67.5 96t30 82t-8 79t-50.5 83z" />
<glyph unicode="&#xc8;" horiz-adv-x="1052" d="M186 0v1382h719v-127h-561v-479h516v-127h-516v-518h561v-131h-719zM623 1493l-369 117l49 125l353 -152z" />
<glyph unicode="&#xc9;" horiz-adv-x="1052" d="M186 0v1382h719v-127h-561v-479h516v-127h-516v-518h561v-131h-719zM436 1493l-33 90l353 152l49 -125z" />
<glyph unicode="&#xca;" horiz-adv-x="1052" d="M186 0v1382h719v-127h-561v-479h516v-127h-516v-518h561v-131h-719zM811 1489l-272 127l-275 -127l-45 92l322 168l317 -166z" />
<glyph unicode="&#xcb;" horiz-adv-x="1052" d="M186 0v1382h719v-127h-561v-479h516v-127h-516v-518h561v-131h-719zM406 1595q-2 -43 -26.5 -68.5t-69.5 -27.5q-43 2 -69 28.5t-28 67.5q2 41 29 68t68 29q43 -2 68.5 -29t27.5 -68zM842 1595q-2 -45 -30.5 -70.5t-67.5 -25.5q-45 2 -68.5 28.5t-25.5 67.5q2 41 28.5 69 t65.5 28q41 -2 68.5 -27t29.5 -70z" />
<glyph unicode="&#xcc;" horiz-adv-x="530" d="M186 0v1382h158v-1382h-158zM350 1493l-369 117l49 125l353 -152z" />
<glyph unicode="&#xcd;" horiz-adv-x="530" d="M186 0v1382h158v-1382h-158zM186 1493l-33 90l353 152l49 -125z" />
<glyph unicode="&#xce;" horiz-adv-x="530" d="M186 0v1382h158v-1382h-158zM538 1489l-272 127l-275 -127l-45 92l322 168l317 -166z" />
<glyph unicode="&#xcf;" horiz-adv-x="530" d="M186 0v1382h158v-1382h-158zM563 1595q0 -41 -28.5 -68.5t-69.5 -27.5q-39 0 -67.5 28.5t-28.5 67.5q0 41 27.5 70t68.5 29t69.5 -29t28.5 -70zM164 1595q0 -39 -27.5 -67.5t-68.5 -28.5t-70 27.5t-29 68.5t29 70t70 29t68.5 -29t27.5 -70z" />
<glyph unicode="&#xd0;" horiz-adv-x="1415" d="M1149 694q0 281 -141.5 424.5t-421.5 143.5q-49 0 -122 -2.5t-106 -4.5v-483h314v-121h-314v-514q20 -2 46 -5t53.5 -5t53.5 -3t48 -1q133 0 240.5 35t186.5 105.5t121 178t42 252.5zM1315 705q0 -174 -56.5 -307.5t-160 -223.5t-245.5 -135t-314 -45q-74 0 -183.5 3 t-150.5 3v651h-199v121h199v610q49 0 185 3.5t212 3.5q346 0 529.5 -169t183.5 -515z" />
<glyph unicode="&#xd1;" horiz-adv-x="1421" d="M1081 0h-6l-543 852q-41 63 -71.5 114.5t-54 92.5t-43 75.5t-35.5 69.5h-4q2 -61 5 -159.5t6 -212t4 -230.5t1 -213v-389h-154v1382h154h45l512 -804q43 -68 73.5 -117t53.5 -89t39 -71t31 -61h4q-4 70 -7.5 164t-5.5 200.5t-3 216t-1 209.5v352h154v-1382h-154z M1075 1655q-82 -143 -219 -144q-51 0 -88 17.5t-67 38t-57.5 38t-62.5 17.5q-74 0 -131 -94l-82 59q39 70 94.5 107t124.5 37q51 0 88 -17.5t67 -38t57.5 -38t62.5 -17.5q72 0 131 94l82 -59v0z" />
<glyph unicode="&#xd2;" horiz-adv-x="1449" d="M1192 682q0 268 -120 426t-347 158q-98 0 -183 -37t-148.5 -108.5t-99.5 -178t-36 -240.5q0 -131 29.5 -238.5t89 -185t146.5 -119.5t202 -42q98 0 183 36.5t148.5 108.5t99.5 178.5t36 241.5zM1356 709q0 -172 -50.5 -308.5t-140.5 -229.5t-207.5 -141t-250.5 -48 q-145 0 -260 48t-194 139t-119 219t-40 286q0 172 50.5 308t140.5 229.5t207.5 141.5t250.5 48q145 0 260 -48t194 -139.5t119 -219t40 -285.5zM795 1493l-369 117l49 125l353 -152z" />
<glyph unicode="&#xd3;" horiz-adv-x="1449" d="M1192 682q0 268 -120 426t-347 158q-98 0 -183 -37t-148.5 -108.5t-99.5 -178t-36 -240.5q0 -131 29.5 -238.5t89 -185t146.5 -119.5t202 -42q98 0 183 36.5t148.5 108.5t99.5 178.5t36 241.5zM1356 709q0 -172 -50.5 -308.5t-140.5 -229.5t-207.5 -141t-250.5 -48 q-145 0 -260 48t-194 139t-119 219t-40 286q0 172 50.5 308t140.5 229.5t207.5 141.5t250.5 48q145 0 260 -48t194 -139.5t119 -219t40 -285.5zM661 1493l-33 90l353 152l49 -125z" />
<glyph unicode="&#xd4;" horiz-adv-x="1449" d="M1192 682q0 268 -120 426t-347 158q-98 0 -183 -37t-148.5 -108.5t-99.5 -178t-36 -240.5q0 -131 29.5 -238.5t89 -185t146.5 -119.5t202 -42q98 0 183 36.5t148.5 108.5t99.5 178.5t36 241.5zM1356 709q0 -172 -50.5 -308.5t-140.5 -229.5t-207.5 -141t-250.5 -48 q-145 0 -260 48t-194 139t-119 219t-40 286q0 172 50.5 308t140.5 229.5t207.5 141.5t250.5 48q145 0 260 -48t194 -139.5t119 -219t40 -285.5zM1007 1489l-272 127l-275 -127l-45 92l322 168l317 -166z" />
<glyph unicode="&#xd5;" horiz-adv-x="1449" d="M1192 682q0 268 -120 426t-347 158q-98 0 -183 -37t-148.5 -108.5t-99.5 -178t-36 -240.5q0 -131 29.5 -238.5t89 -185t146.5 -119.5t202 -42q98 0 183 36.5t148.5 108.5t99.5 178.5t36 241.5zM1356 709q0 -172 -50.5 -308.5t-140.5 -229.5t-207.5 -141t-250.5 -48 q-145 0 -260 48t-194 139t-119 219t-40 286q0 172 50.5 308t140.5 229.5t207.5 141.5t250.5 48q145 0 260 -48t194 -139.5t119 -219t40 -285.5zM1073 1655q-82 -143 -219 -144q-51 0 -88 17.5t-67 38t-57.5 38t-62.5 17.5q-74 0 -131 -94l-82 59q39 70 94.5 107t124.5 37 q51 0 88 -17.5t67 -38t57.5 -38t62.5 -17.5q72 0 131 94l82 -59v0z" />
<glyph unicode="&#xd6;" horiz-adv-x="1449" d="M1192 682q0 268 -120 426t-347 158q-98 0 -183 -37t-148.5 -108.5t-99.5 -178t-36 -240.5q0 -131 29.5 -238.5t89 -185t146.5 -119.5t202 -42q98 0 183 36.5t148.5 108.5t99.5 178.5t36 241.5zM1356 709q0 -172 -50.5 -308.5t-140.5 -229.5t-207.5 -141t-250.5 -48 q-145 0 -260 48t-194 139t-119 219t-40 286q0 172 50.5 308t140.5 229.5t207.5 141.5t250.5 48q145 0 260 -48t194 -139.5t119 -219t40 -285.5zM608 1595q-2 -43 -26.5 -68.5t-69.5 -27.5q-43 2 -69 28.5t-28 67.5q2 41 29 68t68 29q43 -2 68.5 -29t27.5 -68zM1044 1595 q-2 -45 -30.5 -70.5t-67.5 -25.5q-45 2 -68.5 28.5t-25.5 67.5q2 41 28.5 69t65.5 28q41 -2 68.5 -27t29.5 -70z" />
<glyph unicode="&#xd7;" d="M913 164l-354 354l-354 -354l-86 86l354 354l-354 354l94 95l354 -355l355 355l86 -86l-355 -355l355 -354z" />
<glyph unicode="&#xd8;" horiz-adv-x="1449" d="M846 1257q-35 6 -59.5 8.5t-44 2.5h-64.5t-130 -37t-149.5 -108.5t-102.5 -177t-38 -240.5q0 -172 45 -301.5t152 -206.5l415 1054zM1190 680q0 184 -50 316t-159 202l-416 -1061q37 -10 75 -15t73 -5q100 0 187 35.5t151.5 106.5t101.5 176.5t37 244.5zM1354 700 q-2 -174 -50.5 -308t-137.5 -225t-207.5 -138t-260.5 -47q-98 0 -188 22l-86 -213l-117 47l86 213q-158 86 -228.5 249t-70.5 380q0 172 51.5 306t139.5 226.5t205.5 140.5t252.5 48q47 0 92.5 -5t88.5 -14l80 203l116 -47l-78 -201q154 -72 234 -240t78 -397z" />
<glyph unicode="&#xd9;" horiz-adv-x="1427" d="M1241 524q0 -266 -138 -404t-407 -138q-154 0 -255 38.5t-156.5 106.5t-77 150.5t-21.5 181.5v923h158v-909q0 -80 16.5 -144.5t56.5 -113.5t111.5 -76.5t180.5 -27.5q195 0 286.5 92t91.5 309v870h154v-858zM770 1493l-369 117l49 125l353 -152z" />
<glyph unicode="&#xda;" horiz-adv-x="1427" d="M1241 524q0 -266 -138 -404t-407 -138q-154 0 -255 38.5t-156.5 106.5t-77 150.5t-21.5 181.5v923h158v-909q0 -80 16.5 -144.5t56.5 -113.5t111.5 -76.5t180.5 -27.5q195 0 286.5 92t91.5 309v870h154v-858zM684 1493l-33 90l353 152l49 -125z" />
<glyph unicode="&#xdb;" horiz-adv-x="1427" d="M1241 524q0 -266 -138 -404t-407 -138q-154 0 -255 38.5t-156.5 106.5t-77 150.5t-21.5 181.5v923h158v-909q0 -80 16.5 -144.5t56.5 -113.5t111.5 -76.5t180.5 -27.5q195 0 286.5 92t91.5 309v870h154v-858zM993 1489l-272 127l-275 -127l-45 92l322 168l317 -166z" />
<glyph unicode="&#xdc;" horiz-adv-x="1427" d="M1241 524q0 -266 -138 -404t-407 -138q-154 0 -255 38.5t-156.5 106.5t-77 150.5t-21.5 181.5v923h158v-909q0 -80 16.5 -144.5t56.5 -113.5t111.5 -76.5t180.5 -27.5q195 0 286.5 92t91.5 309v870h154v-858zM590 1595q-2 -43 -26.5 -68.5t-69.5 -27.5q-43 2 -69 28.5 t-28 67.5q2 41 29 68t68 29q43 -2 68.5 -29t27.5 -68zM1026 1595q-2 -45 -30.5 -70.5t-67.5 -25.5q-45 2 -68.5 28.5t-25.5 67.5q2 41 28.5 69t65.5 28q41 -2 68.5 -27t29.5 -70z" />
<glyph unicode="&#xdd;" horiz-adv-x="1079" d="M616 541v-541h-155v541l-453 841h174l252 -475q31 -61 56.5 -114.5t52.5 -114.5h2q27 59 54.5 118.5t57.5 114.5l248 471h166zM504 1493l-33 90l353 152l49 -125z" />
<glyph unicode="&#xde;" horiz-adv-x="1091" d="M889 733q0 147 -94.5 233.5t-282.5 86.5q-51 0 -98 -3t-70 -6v-628q23 -2 72 -7.5t102 -5.5q180 0 275.5 92.5t95.5 237.5zM1051 756q0 -102 -38 -190.5t-110 -153t-174 -100.5t-225 -36q-78 0 -160 7v-283h-158v1382h158v-206q23 2 75 4t116 2q256 0 386 -121t130 -305z " />
<glyph unicode="&#xdf;" horiz-adv-x="1202" d="M1112 299q0 -68 -27.5 -126t-80 -101t-127 -66.5t-168.5 -23.5q-55 0 -106.5 5t-90.5 15l14 139q88 -33 187 -32q127 0 184 51t57 119q0 59 -30.5 97t-77.5 67.5t-100.5 58t-100.5 65.5t-77.5 90.5t-30.5 135.5q0 61 21.5 103t54 73.5t70.5 56.5t70.5 52.5t54 61.5 t21.5 83q0 82 -58 120.5t-150 38.5q-135 0 -208 -80.5t-73 -263.5v-1038h-154v1028q0 131 35 222t94.5 148.5t141.5 82t174 24.5q174 0 265 -75.5t91 -192.5q0 -70 -21.5 -116t-54 -78.5t-71.5 -56t-71 -48.5t-54.5 -54.5t-22.5 -76.5q0 -55 31 -93t78 -68t101 -58.5 t101.5 -66.5t78 -90t30.5 -132z" />
<glyph unicode="&#xe0;" horiz-adv-x="1064" d="M723 485q-131 0 -222 -16t-144.5 -46t-77 -67t-23.5 -82q0 -74 46 -121t122 -47q63 0 119.5 30t96.5 80t61.5 112.5t21.5 126.5v30zM729 0q0 78 2 127t8 88h-4q-18 -49 -52 -91t-80 -75t-102.5 -50t-119.5 -17q-123 0 -201 73.5t-78 196.5q0 160 162 253t459 93v61 q0 131 -52.5 192.5t-176.5 61.5q-70 0 -153 -19.5t-157 -51.5l-28 121q84 35 175 54t181 19q100 0 170 -24.5t113 -70.5t62.5 -111.5t19.5 -149.5v-375v-116t1 -98t3 -91h-152zM541 1174l-271 262l101 94l247 -283z" />
<glyph unicode="&#xe1;" horiz-adv-x="1064" d="M723 485q-131 0 -222 -16t-144.5 -46t-77 -67t-23.5 -82q0 -74 46 -121t122 -47q63 0 119.5 30t96.5 80t61.5 112.5t21.5 126.5v30zM729 0q0 78 2 127t8 88h-4q-18 -49 -52 -91t-80 -75t-102.5 -50t-119.5 -17q-123 0 -201 73.5t-78 196.5q0 160 162 253t459 93v61 q0 131 -52.5 192.5t-176.5 61.5q-70 0 -153 -19.5t-157 -51.5l-28 121q84 35 175 54t181 19q100 0 170 -24.5t113 -70.5t62.5 -111.5t19.5 -149.5v-375v-116t1 -98t3 -91h-152zM510 1174l-78 73l248 283l100 -94z" />
<glyph unicode="&#xe2;" horiz-adv-x="1064" d="M723 485q-131 0 -222 -16t-144.5 -46t-77 -67t-23.5 -82q0 -74 46 -121t122 -47q63 0 119.5 30t96.5 80t61.5 112.5t21.5 126.5v30zM729 0q0 78 2 127t8 88h-4q-18 -49 -52 -91t-80 -75t-102.5 -50t-119.5 -17q-123 0 -201 73.5t-78 196.5q0 160 162 253t459 93v61 q0 131 -52.5 192.5t-176.5 61.5q-70 0 -153 -19.5t-157 -51.5l-28 121q84 35 175 54t181 19q100 0 170 -24.5t113 -70.5t62.5 -111.5t19.5 -149.5v-375v-116t1 -98t3 -91h-152zM725 1178l-200 176l-205 -176l-68 71l275 267l272 -263z" />
<glyph unicode="&#xe3;" horiz-adv-x="1064" d="M723 485q-131 0 -222 -16t-144.5 -46t-77 -67t-23.5 -82q0 -74 46 -121t122 -47q63 0 119.5 30t96.5 80t61.5 112.5t21.5 126.5v30zM729 0q0 78 2 127t8 88h-4q-18 -49 -52 -91t-80 -75t-102.5 -50t-119.5 -17q-123 0 -201 73.5t-78 196.5q0 160 162 253t459 93v61 q0 131 -52.5 192.5t-176.5 61.5q-70 0 -153 -19.5t-157 -51.5l-28 121q84 35 175 54t181 19q100 0 170 -24.5t113 -70.5t62.5 -111.5t19.5 -149.5v-375v-116t1 -98t3 -91h-152zM858 1376q-39 -70 -93 -108.5t-120 -38.5q-49 0 -85 17.5t-64.5 40t-55 39.5t-59.5 17 q-70 -2 -125 -98l-80 64q39 72 93.5 110.5t121.5 38.5q49 0 84 -18.5t63.5 -40t55.5 -39t60 -17.5q72 0 126 97l78 -64v0z" />
<glyph unicode="&#xe4;" horiz-adv-x="1064" d="M723 485q-131 0 -222 -16t-144.5 -46t-77 -67t-23.5 -82q0 -74 46 -121t122 -47q63 0 119.5 30t96.5 80t61.5 112.5t21.5 126.5v30zM729 0q0 78 2 127t8 88h-4q-18 -49 -52 -91t-80 -75t-102.5 -50t-119.5 -17q-123 0 -201 73.5t-78 196.5q0 160 162 253t459 93v61 q0 131 -52.5 192.5t-176.5 61.5q-70 0 -153 -19.5t-157 -51.5l-28 121q84 35 175 54t181 19q100 0 170 -24.5t113 -70.5t62.5 -111.5t19.5 -149.5v-375v-116t1 -98t3 -91h-152zM424 1346q0 -41 -27.5 -70t-68.5 -29t-70 29t-29 70t29 68.5t70 27.5t68.5 -27.5t27.5 -68.5z M809 1346q0 -41 -27.5 -70t-68.5 -29t-70 29t-29 70t29 68.5t70 27.5t68.5 -27.5t27.5 -68.5z" />
<glyph unicode="&#xe5;" horiz-adv-x="1064" d="M723 485q-131 0 -222 -16t-144.5 -46t-77 -67t-23.5 -82q0 -74 46 -121t122 -47q63 0 119.5 30t96.5 80t61.5 112.5t21.5 126.5v30zM729 0q0 78 2 127t8 88h-4q-18 -49 -52 -91t-80 -75t-102.5 -50t-119.5 -17q-123 0 -201 73.5t-78 196.5q0 160 162 253t459 93v61 q0 131 -52.5 192.5t-176.5 61.5q-70 0 -153 -19.5t-157 -51.5l-28 121q84 35 175 54t181 19q100 0 170 -24.5t113 -70.5t62.5 -111.5t19.5 -149.5v-375v-116t1 -98t3 -91h-152zM756 1366q0 -92 -61.5 -156t-172.5 -64q-100 0 -157.5 52.5t-57.5 156.5q0 92 61.5 156 t172.5 64q100 0 157.5 -52.5t57.5 -156.5zM639 1359q0 121 -106 121q-41 0 -74 -28.5t-33 -89.5q0 -121 105 -121q41 0 74.5 28.5t33.5 89.5z" />
<glyph unicode="&#xe6;" horiz-adv-x="1656" d="M723 485q-131 0 -222 -16t-144.5 -46t-77 -67t-23.5 -82q0 -74 46 -121t122 -47q63 0 119.5 30t96.5 80t61.5 112.5t21.5 126.5v30zM1397 635q2 131 -63.5 207t-182.5 76q-106 0 -180 -75t-92 -208h518zM1559 625q0 -33 -1.5 -61.5t-3.5 -41.5h-680q-8 -213 76 -313 t254 -100q76 0 149.5 13t149.5 42l23 -121q-180 -61 -342 -61q-88 0 -158 18t-120 51t-81.5 77t-50.5 97h-2q-23 -47 -59.5 -91t-87 -79t-111.5 -54t-131 -19q-125 0 -203 73.5t-78 196.5q0 160 162 253t459 93v61q0 131 -52.5 192.5t-176.5 61.5q-70 0 -153 -19.5 t-157 -51.5l-28 121q84 35 175 54t181 19q121 0 201 -43t114 -129h2q49 76 135.5 124t196.5 48q102 0 178 -31.5t124 -89t72 -131t24 -159.5z" />
<glyph unicode="&#xe7;" horiz-adv-x="901" d="M842 43q-66 -27 -148 -42t-164 -15q-92 0 -169.5 23.5t-139 78.5t-96.5 150.5t-35 234.5q0 125 32 228.5t93 177t152.5 113.5t207.5 40q147 0 261 -45l-31 -131q-55 23 -119.5 36t-128.5 13q-72 0 -129 -29.5t-96 -84t-59.5 -128t-20.5 -163.5q0 -84 15.5 -151.5t50 -120 t95 -82t148.5 -29.5q139 0 252 53zM559 -84q74 -96 60 -192.5t-107 -204.5h-129q43 53 67.5 96t30 82t-8 79t-50.5 83z" />
<glyph unicode="&#xe8;" horiz-adv-x="1034" d="M776 625q2 139 -63.5 216t-184.5 77q-109 0 -183.5 -77t-90.5 -216h522zM934 621q0 -35 -1 -66t-3 -43h-680q-2 -207 80 -305t252 -98q74 0 147.5 13t151.5 42l22 -121q-180 -61 -342 -61q-233 0 -352 129t-119 393q0 113 31 211t89 169.5t141 111.5t188 40 q102 0 178 -31.5t124 -89t70.5 -133t22.5 -161.5zM545 1174l-271 262l101 94l247 -283z" />
<glyph unicode="&#xe9;" horiz-adv-x="1034" d="M776 625q2 139 -63.5 216t-184.5 77q-109 0 -183.5 -77t-90.5 -216h522zM934 621q0 -35 -1 -66t-3 -43h-680q-2 -207 80 -305t252 -98q74 0 147.5 13t151.5 42l22 -121q-180 -61 -342 -61q-233 0 -352 129t-119 393q0 113 31 211t89 169.5t141 111.5t188 40 q102 0 178 -31.5t124 -89t70.5 -133t22.5 -161.5zM518 1174l-78 73l248 283l100 -94z" />
<glyph unicode="&#xea;" horiz-adv-x="1034" d="M776 625q2 139 -63.5 216t-184.5 77q-109 0 -183.5 -77t-90.5 -216h522zM934 621q0 -35 -1 -66t-3 -43h-680q-2 -207 80 -305t252 -98q74 0 147.5 13t151.5 42l22 -121q-180 -61 -342 -61q-233 0 -352 129t-119 393q0 113 31 211t89 169.5t141 111.5t188 40 q102 0 178 -31.5t124 -89t70.5 -133t22.5 -161.5zM733 1178l-200 176l-205 -176l-68 71l275 267l272 -263z" />
<glyph unicode="&#xeb;" horiz-adv-x="1034" d="M776 625q2 139 -63.5 216t-184.5 77q-109 0 -183.5 -77t-90.5 -216h522zM934 621q0 -35 -1 -66t-3 -43h-680q-2 -207 80 -305t252 -98q74 0 147.5 13t151.5 42l22 -121q-180 -61 -342 -61q-233 0 -352 129t-119 393q0 113 31 211t89 169.5t141 111.5t188 40 q102 0 178 -31.5t124 -89t70.5 -133t22.5 -161.5zM438 1346q0 -41 -27.5 -70t-68.5 -29t-70 29t-29 70t29 68.5t70 27.5t68.5 -27.5t27.5 -68.5zM823 1346q0 -41 -27.5 -70t-68.5 -29t-70 29t-29 70t29 68.5t70 27.5t68.5 -27.5t27.5 -68.5z" />
<glyph unicode="&#xec;" horiz-adv-x="526" d="M186 0v1018h154v-1018h-154zM245 1161l-194 318l121 65l170 -330z" />
<glyph unicode="&#xed;" horiz-adv-x="526" d="M186 0v1018h154v-1018h-154zM274 1171l-90 62l205 303l115 -76z" />
<glyph unicode="&#xee;" horiz-adv-x="526" d="M186 0v1018h154v-1018h-154zM440 1178l-176 176l-178 -176l-67 71l247 264l246 -262z" />
<glyph unicode="&#xef;" horiz-adv-x="526" d="M186 0v1018h154v-1018h-154zM189 1346q0 -41 -28.5 -70t-69.5 -29t-70 29t-29 70t29 68.5t70 27.5t69.5 -27.5t28.5 -68.5zM539 1346q0 -41 -28.5 -70t-69.5 -29q-43 0 -71 29t-28 70q0 39 29 67.5t70 28.5t69.5 -27.5t28.5 -68.5z" />
<glyph unicode="&#xf0;" horiz-adv-x="1112" d="M860 535q0 174 -77.5 274t-227.5 100q-61 0 -116.5 -23.5t-99.5 -72.5t-68.5 -125t-24.5 -174q0 -190 84 -295.5t233 -105.5q63 0 116.5 23.5t94.5 74.5t63.5 132t22.5 192zM1018 555q0 -143 -36 -251.5t-100.5 -179.5t-151.5 -106.5t-189 -35.5t-186.5 31.5t-143.5 97 t-92 164t-33 229.5q0 111 33 207t95 168.5t151.5 113.5t197.5 41q76 0 140.5 -25.5t95.5 -78.5q-14 29 -35 61.5t-31 50.5q-27 47 -60.5 93.5t-78.5 97.5l-217 -98l-66 86l201 90q-33 31 -71 61.5t-99 79.5l156 68q41 -33 80.5 -70t78.5 -76l213 94l68 -86l-207 -90 q137 -162 212 -350t75 -387z" />
<glyph unicode="&#xf1;" horiz-adv-x="1181" d="M842 0v657q0 127 -42 189.5t-149 62.5q-68 0 -125 -31.5t-99 -89t-64.5 -134t-22.5 -167.5v-487h-154v1018h152q0 -53 -4 -117.5t-12 -109.5l4 -3q45 115 139 181.5t225 66.5q84 0 143.5 -24.5t95.5 -68.5t51 -103.5t15 -130.5v-709h-153zM940 1376q-39 -70 -93 -108.5 t-120 -38.5q-49 0 -85 17.5t-64.5 40t-55 39.5t-59.5 17q-70 -2 -125 -98l-80 64q39 72 93.5 110.5t121.5 38.5q49 0 84 -18.5t63.5 -40t55.5 -39t60 -17.5q72 0 126 97l78 -64v0z" />
<glyph unicode="&#xf2;" horiz-adv-x="1110" d="M864 510q0 188 -82 293.5t-225 105.5q-70 0 -127 -25.5t-98 -76.5t-62.5 -126t-21.5 -173q0 -188 81 -292.5t224 -104.5q68 0 124 23.5t98 72.5t65.5 125t23.5 178zM1022 520q0 -113 -30.5 -211t-92 -172t-153 -114.5t-207.5 -40.5q-102 0 -185.5 31.5t-142.5 96t-91 162 t-32 226.5q0 113 32 211t93 171.5t152.5 114.5t207.5 41q102 0 185.5 -31.5t141.5 -96t90 -162t32 -226.5zM580 1174l-271 262l101 94l247 -283z" />
<glyph unicode="&#xf3;" horiz-adv-x="1110" d="M864 510q0 188 -82 293.5t-225 105.5q-70 0 -127 -25.5t-98 -76.5t-62.5 -126t-21.5 -173q0 -188 81 -292.5t224 -104.5q68 0 124 23.5t98 72.5t65.5 125t23.5 178zM1022 520q0 -113 -30.5 -211t-92 -172t-153 -114.5t-207.5 -40.5q-102 0 -185.5 31.5t-142.5 96t-91 162 t-32 226.5q0 113 32 211t93 171.5t152.5 114.5t207.5 41q102 0 185.5 -31.5t141.5 -96t90 -162t32 -226.5zM549 1174l-78 73l248 283l100 -94z" />
<glyph unicode="&#xf4;" horiz-adv-x="1110" d="M864 510q0 188 -82 293.5t-225 105.5q-70 0 -127 -25.5t-98 -76.5t-62.5 -126t-21.5 -173q0 -188 81 -292.5t224 -104.5q68 0 124 23.5t98 72.5t65.5 125t23.5 178zM1022 520q0 -113 -30.5 -211t-92 -172t-153 -114.5t-207.5 -40.5q-102 0 -185.5 31.5t-142.5 96t-91 162 t-32 226.5q0 113 32 211t93 171.5t152.5 114.5t207.5 41q102 0 185.5 -31.5t141.5 -96t90 -162t32 -226.5zM757 1178l-200 176l-205 -176l-68 71l275 267l272 -263z" />
<glyph unicode="&#xf5;" horiz-adv-x="1110" d="M864 510q0 188 -82 293.5t-225 105.5q-70 0 -127 -25.5t-98 -76.5t-62.5 -126t-21.5 -173q0 -188 81 -292.5t224 -104.5q68 0 124 23.5t98 72.5t65.5 125t23.5 178zM1022 520q0 -113 -30.5 -211t-92 -172t-153 -114.5t-207.5 -40.5q-102 0 -185.5 31.5t-142.5 96t-91 162 t-32 226.5q0 113 32 211t93 171.5t152.5 114.5t207.5 41q102 0 185.5 -31.5t141.5 -96t90 -162t32 -226.5zM905 1376q-39 -70 -93 -108.5t-120 -38.5q-49 0 -85 17.5t-64.5 40t-55 39.5t-59.5 17q-70 -2 -125 -98l-80 64q39 72 93.5 110.5t121.5 38.5q49 0 84 -18.5 t63.5 -40t55.5 -39t60 -17.5q72 0 126 97l78 -64v0z" />
<glyph unicode="&#xf6;" horiz-adv-x="1110" d="M864 510q0 188 -82 293.5t-225 105.5q-70 0 -127 -25.5t-98 -76.5t-62.5 -126t-21.5 -173q0 -188 81 -292.5t224 -104.5q68 0 124 23.5t98 72.5t65.5 125t23.5 178zM1022 520q0 -113 -30.5 -211t-92 -172t-153 -114.5t-207.5 -40.5q-102 0 -185.5 31.5t-142.5 96t-91 162 t-32 226.5q0 113 32 211t93 171.5t152.5 114.5t207.5 41q102 0 185.5 -31.5t141.5 -96t90 -162t32 -226.5zM461 1346q0 -41 -27.5 -70t-68.5 -29t-70 29t-29 70t29 68.5t70 27.5t68.5 -27.5t27.5 -68.5zM846 1346q0 -41 -27.5 -70t-68.5 -29t-70 29t-29 70t29 68.5t70 27.5 t68.5 -27.5t27.5 -68.5z" />
<glyph unicode="&#xf7;" d="M670 197q0 -47 -32 -79t-79 -32q-45 0 -76.5 32t-31.5 79q0 45 31.5 76.5t76.5 31.5q47 0 79 -31.5t32 -76.5zM88 545v129h950v-129h-950zM670 1020q0 -47 -32 -78t-79 -31q-45 0 -76.5 31t-31.5 78t31.5 77.5t76.5 30.5q47 0 79 -30.5t32 -77.5z" />
<glyph unicode="&#xf8;" horiz-adv-x="1110" d="M690 885q-61 29 -131 28q-72 0 -131 -25.5t-101 -77.5t-64.5 -128t-22.5 -174q0 -100 24.5 -180t63.5 -127zM872 510q0 203 -90 307l-362 -684q66 -29 133 -29q72 0 131 26t101 78t64.5 128t22.5 174zM1022 520q0 -113 -30.5 -211t-92 -172t-153 -114.5t-207.5 -40.5 q-104 0 -183 32l-100 -192l-102 49l104 195q-82 61 -126 169.5t-44 262.5q0 113 32 211t93 171.5t152.5 114.5t207.5 41q102 0 181 -32l100 192l102 -49l-102 -195q80 -61 124 -169.5t44 -262.5z" />
<glyph unicode="&#xf9;" horiz-adv-x="1181" d="M844 0q0 51 4 115.5t12 111.5l-4 2q-43 -113 -136 -180t-228 -67q-88 0 -146.5 25.5t-94.5 69.5t-50.5 104.5t-14.5 127.5v709h154v-658q0 -121 40 -186t150 -65q68 0 125.5 31.5t99.5 88t64.5 134t22.5 167.5v488h153v-1018h-151zM594 1174l-271 262l101 94l247 -283z " />
<glyph unicode="&#xfa;" horiz-adv-x="1181" d="M844 0q0 51 4 115.5t12 111.5l-4 2q-43 -113 -136 -180t-228 -67q-88 0 -146.5 25.5t-94.5 69.5t-50.5 104.5t-14.5 127.5v709h154v-658q0 -121 40 -186t150 -65q68 0 125.5 31.5t99.5 88t64.5 134t22.5 167.5v488h153v-1018h-151zM592 1174l-78 73l248 283l100 -94z" />
<glyph unicode="&#xfb;" horiz-adv-x="1181" d="M844 0q0 51 4 115.5t12 111.5l-4 2q-43 -113 -136 -180t-228 -67q-88 0 -146.5 25.5t-94.5 69.5t-50.5 104.5t-14.5 127.5v709h154v-658q0 -121 40 -186t150 -65q68 0 125.5 31.5t99.5 88t64.5 134t22.5 167.5v488h153v-1018h-151zM790 1178l-200 176l-205 -176l-68 71 l275 267l272 -263z" />
<glyph unicode="&#xfc;" horiz-adv-x="1181" d="M844 0q0 51 4 115.5t12 111.5l-4 2q-43 -113 -136 -180t-228 -67q-88 0 -146.5 25.5t-94.5 69.5t-50.5 104.5t-14.5 127.5v709h154v-658q0 -121 40 -186t150 -65q68 0 125.5 31.5t99.5 88t64.5 134t22.5 167.5v488h153v-1018h-151zM494 1346q0 -41 -27.5 -70t-68.5 -29 t-70 29t-29 70t29 68.5t70 27.5t68.5 -27.5t27.5 -68.5zM879 1346q0 -41 -27.5 -70t-68.5 -29t-70 29t-29 70t29 68.5t70 27.5t68.5 -27.5t27.5 -68.5z" />
<glyph unicode="&#xfd;" horiz-adv-x="964" d="M526 -96q-45 -121 -92 -203t-102.5 -132t-124 -72.5t-154.5 -22.5q-33 0 -62.5 4t-43.5 8l16 133q14 -4 48 -9t71 -5q47 0 85 13t71.5 45t64.5 85t62 133l47 119l-389 1018h176l213 -586q25 -70 43 -128t37 -120h2q12 49 38.5 131t61.5 181l182 522h168zM491 1174l-78 73 l248 283l100 -94z" />
<glyph unicode="&#xfe;" horiz-adv-x="1142" d="M887 543q0 176 -60.5 271t-183.5 95q-78 0 -134 -40t-94 -101t-56.5 -135t-18.5 -141v-357q86 -27 199 -26q80 0 143 24.5t109.5 76.5t71 135t24.5 198zM1049 555q0 -274 -139.5 -420.5t-381.5 -146.5q-53 0 -95 2t-93 12v-512h-154v2005h154v-459q0 -59 -3 -121.5 t-11 -111.5l4 -2q43 106 132 170.5t212 64.5q180 0 277.5 -121.5t97.5 -359.5z" />
<glyph unicode="&#xff;" horiz-adv-x="964" d="M526 -96q-45 -121 -92 -203t-102.5 -132t-124 -72.5t-154.5 -22.5q-33 0 -62.5 4t-43.5 8l16 133q14 -4 48 -9t71 -5q47 0 85 13t71.5 45t64.5 85t62 133l47 119l-389 1018h176l213 -586q25 -70 43 -128t37 -120h2q12 49 38.5 131t61.5 181l182 522h168zM391 1346 q0 -41 -27.5 -70t-68.5 -29t-70 29t-29 70t29 68.5t70 27.5t68.5 -27.5t27.5 -68.5zM776 1346q0 -41 -27.5 -70t-68.5 -29t-70 29t-29 70t29 68.5t70 27.5t68.5 -27.5t27.5 -68.5z" />
<glyph unicode="&#x100;" horiz-adv-x="1251" d="M682 1036q-18 55 -32.5 99.5t-28.5 91.5h-3q-14 -49 -28.5 -94.5t-30.5 -92.5l-207 -571h535zM1047 0l-121 342h-615l-121 -342h-143h-20l508 1382h184l506 -1382h-21h-157zM350 1538v111h551v-111h-551z" />
<glyph unicode="&#x101;" horiz-adv-x="1064" d="M723 485q-131 0 -222 -16t-144.5 -46t-77 -67t-23.5 -82q0 -74 46 -121t122 -47q63 0 119.5 30t96.5 80t61.5 112.5t21.5 126.5v30zM729 0q0 78 2 127t8 88h-4q-18 -49 -52 -91t-80 -75t-102.5 -50t-119.5 -17q-123 0 -201 73.5t-78 196.5q0 160 162 253t459 93v61 q0 131 -52.5 192.5t-176.5 61.5q-70 0 -153 -19.5t-157 -51.5l-28 121q84 35 175 54t181 19q100 0 170 -24.5t113 -70.5t62.5 -111.5t19.5 -149.5v-375v-116t1 -98t3 -91h-152zM272 1276v117h502v-117h-502z" />
<glyph unicode="&#x102;" horiz-adv-x="1251" d="M682 1036q-18 55 -32.5 99.5t-28.5 91.5h-3q-14 -49 -28.5 -94.5t-30.5 -92.5l-207 -571h535zM1047 0l-121 342h-615l-121 -342h-143h-20l508 1382h184l506 -1382h-21h-157zM876 1739q0 -102 -68.5 -170t-189.5 -68q-127 0 -189.5 69.5t-62.5 168.5h103q0 -53 43 -91 t108 -38q70 0 111 38t41 91h104v0z" />
<glyph unicode="&#x103;" horiz-adv-x="1064" d="M723 485q-131 0 -222 -16t-144.5 -46t-77 -67t-23.5 -82q0 -74 46 -121t122 -47q63 0 119.5 30t96.5 80t61.5 112.5t21.5 126.5v30zM729 0q0 78 2 127t8 88h-4q-18 -49 -52 -91t-80 -75t-102.5 -50t-119.5 -17q-123 0 -201 73.5t-78 196.5q0 160 162 253t459 93v61 q0 131 -52.5 192.5t-176.5 61.5q-70 0 -153 -19.5t-157 -51.5l-28 121q84 35 175 54t181 19q100 0 170 -24.5t113 -70.5t62.5 -111.5t19.5 -149.5v-375v-116t1 -98t3 -91h-152zM774 1468q0 -53 -15.5 -99t-45 -83t-78 -57.5t-109.5 -20.5q-63 0 -109.5 20.5t-76 57.5t-44 83 t-14.5 99h107q0 -61 37 -102t102 -41q63 0 100 38t37 105h109z" />
<glyph unicode="&#x104;" horiz-adv-x="1251" d="M682 1036q-16 45 -25.5 76t-35.5 115h-3q-12 -43 -28.5 -95.5t-30.5 -91.5l-207 -571h535zM1292 -391q-49 -43 -103 -64.5t-114 -21.5q-98 0 -152.5 48t-54.5 130q0 76 44 153.5t135 145.5l-121 342h-615l-121 -342h-163l508 1382h184l506 -1382q-113 -70 -160 -138.5 t-47 -131.5q0 -43 22.5 -64.5t63.5 -21.5q63 0 135 53z" />
<glyph unicode="&#x105;" horiz-adv-x="1064" d="M723 485q-131 0 -222 -16t-144.5 -46t-77 -67t-23.5 -82q0 -74 46 -121t122 -47q63 0 119.5 30t96.5 80t61.5 112.5t21.5 126.5v30zM987 -391q-47 -41 -102.5 -63.5t-112.5 -22.5q-98 0 -152.5 48t-54.5 130q0 39 11.5 78t35 79t59.5 78.5t85 75.5q-8 49 -12.5 101.5 t-2.5 95.5l-2 2q-43 -100 -138 -164.5t-220 -64.5q-123 0 -201 73.5t-78 196.5q0 160 162 253t459 93v61q0 131 -52.5 192.5t-176.5 61.5q-70 0 -153 -19.5t-157 -51.5l-28 121q84 35 175 54t181 19q100 0 170 -24.5t113 -70.5t62.5 -111.5t19.5 -149.5v-309q0 -96 8 -193.5 t22 -177.5q-104 -76 -148 -141.5t-44 -128.5q0 -86 84 -86q61 0 137 53z" />
<glyph unicode="&#x106;" horiz-adv-x="1208" d="M1114 61q-82 -35 -183.5 -55t-205.5 -20q-158 0 -275.5 48t-195.5 137t-116 213t-38 275q0 160 40 294t122 233.5t210 155t300 55.5q78 0 165 -12.5t159 -32.5l-27 -146q-80 27 -162 42.5t-157 15.5q-123 0 -215.5 -44t-151.5 -124t-87 -184.5t-28 -225.5 q0 -272 123 -417.5t367 -145.5q82 0 170 19.5t155 52.5zM649 1493l-33 90l353 152l49 -125z" />
<glyph unicode="&#x107;" horiz-adv-x="901" d="M842 43q-66 -27 -148 -42t-164 -15q-92 0 -169.5 23.5t-139 78.5t-96.5 150.5t-35 234.5q0 125 32 228.5t93 177t152.5 113.5t207.5 40q147 0 261 -45l-31 -131q-55 23 -119.5 36t-128.5 13q-72 0 -129 -29.5t-96 -84t-59.5 -128t-20.5 -163.5q0 -84 15.5 -151.5t50 -120 t95 -82t148.5 -29.5q139 0 252 53zM512 1174l-78 73l248 283l100 -94z" />
<glyph unicode="&#x10c;" horiz-adv-x="1208" d="M1114 61q-82 -35 -183.5 -55t-205.5 -20q-158 0 -275.5 48t-195.5 137t-116 213t-38 275q0 160 40 294t122 233.5t210 155t300 55.5q78 0 165 -12.5t159 -32.5l-27 -146q-80 27 -162 42.5t-157 15.5q-123 0 -215.5 -44t-151.5 -124t-87 -184.5t-28 -225.5 q0 -272 123 -417.5t367 -145.5q82 0 170 19.5t155 52.5zM717 1489l-318 168l47 92l273 -127l274 127l45 -90z" />
<glyph unicode="&#x10d;" horiz-adv-x="901" d="M842 43q-66 -27 -148 -42t-164 -15q-92 0 -169.5 23.5t-139 78.5t-96.5 150.5t-35 234.5q0 125 32 228.5t93 177t152.5 113.5t207.5 40q147 0 261 -45l-31 -131q-55 23 -119.5 36t-128.5 13q-72 0 -129 -29.5t-96 -84t-59.5 -128t-20.5 -163.5q0 -84 15.5 -151.5t50 -120 t95 -82t148.5 -29.5q139 0 252 53zM541 1178l-271 260l70 78l203 -177l205 177l67 -74z" />
<glyph unicode="&#x10e;" horiz-adv-x="1398" d="M1133 694q0 567 -564 568q-49 0 -87 -1t-138 -6v-1118q41 -6 97.5 -10t101.5 -4q133 0 240.5 35t186.5 105.5t121 178t42 252.5zM1296 705q0 -174 -56 -308.5t-159.5 -223.5t-245 -134t-313.5 -45q-76 0 -184.5 3t-151.5 3v1382q49 0 186.5 3.5t213.5 3.5q170 0 302 -41 t223 -125t138 -214t47 -304zM617 1489l-318 168l47 92l273 -127l274 127l45 -90z" />
<glyph unicode="&#x10f;" horiz-adv-x="1189" d="M803 885q-104 25 -201 24q-158 2 -251 -101t-95 -333q0 -174 60.5 -270t183.5 -96q76 0 134 39.5t95 102t55.5 135.5t18.5 140v359zM805 0q0 47 4 110.5t14 110.5l-4 2q-43 -111 -137 -176t-213 -65q-188 0 -281.5 129t-93.5 352q0 135 37 241.5t105.5 178t164 109.5 t213.5 38q45 0 90.5 -3t98.5 -7v475h153v-1495h-151zM1173 1165l-104 33l117 350l131 -39z" />
<glyph unicode="&#x110;" horiz-adv-x="1415" d="M1149 694q0 281 -141.5 424.5t-421.5 143.5q-49 0 -122 -2.5t-106 -4.5v-483h314v-121h-314v-514q20 -2 46 -5t53.5 -5t53.5 -3t48 -1q133 0 240.5 35t186.5 105.5t121 178t42 252.5zM1315 705q0 -174 -56.5 -307.5t-160 -223.5t-245.5 -135t-314 -45q-74 0 -183.5 3 t-150.5 3v651h-199v121h199v610q49 0 185 3.5t212 3.5q346 0 529.5 -169t183.5 -515z" />
<glyph unicode="&#x111;" horiz-adv-x="1142" d="M803 885q-100 25 -199 24q-80 0 -144.5 -25.5t-109.5 -77.5t-69.5 -135t-24.5 -196q0 -176 60.5 -271t183.5 -95q74 0 131 37.5t95 100t57.5 136.5t19.5 143v359zM956 1217v-1217h-151q0 55 4 117.5t14 103.5l-4 2q-43 -111 -136 -176t-214 -65q-184 0 -279.5 127 t-95.5 354q0 135 37 240.5t104.5 178t164 110.5t214.5 38q43 0 86 -2t103 -8v197h-246v108h246v170h153v-170h154v-108h-154z" />
<glyph unicode="&#x112;" horiz-adv-x="1052" d="M186 0v1382h719v-127h-561v-479h516v-127h-516v-518h561v-131h-719zM258 1538v111h551v-111h-551z" />
<glyph unicode="&#x113;" horiz-adv-x="1034" d="M776 625q2 139 -63.5 216t-184.5 77q-109 0 -183.5 -77t-90.5 -216h522zM934 621q0 -35 -1 -66t-3 -43h-680q-2 -207 80 -305t252 -98q74 0 147.5 13t151.5 42l22 -121q-180 -61 -342 -61q-233 0 -352 129t-119 393q0 113 31 211t89 169.5t141 111.5t188 40 q102 0 178 -31.5t124 -89t70.5 -133t22.5 -161.5zM272 1276v117h502v-117h-502z" />
<glyph unicode="&#x116;" horiz-adv-x="1052" d="M186 0v1382h719v-127h-561v-479h516v-127h-516v-518h561v-131h-719zM643 1602q0 -43 -30.5 -74t-71.5 -31q-43 0 -74 29.5t-31 75.5q0 43 31 73.5t74 30.5t72.5 -29.5t29.5 -74.5z" />
<glyph unicode="&#x117;" horiz-adv-x="1034" d="M776 625q2 139 -63.5 216t-184.5 77q-109 0 -183.5 -77t-90.5 -216h522zM934 621q0 -35 -1 -66t-3 -43h-680q-2 -207 80 -305t252 -98q74 0 147.5 13t151.5 42l22 -121q-180 -61 -342 -61q-233 0 -352 129t-119 393q0 113 31 211t89 169.5t141 111.5t188 40 q102 0 178 -31.5t124 -89t70.5 -133t22.5 -161.5zM635 1347q0 -43 -30.5 -72.5t-71.5 -29.5q-43 0 -74 29.5t-31 72.5t31 74t74 31t72.5 -30t29.5 -75z" />
<glyph unicode="&#x118;" horiz-adv-x="1052" d="M956 -391q-47 -41 -102 -63.5t-115 -22.5q-96 0 -150 48t-54 130q0 86 53 169t129 130h-531v1382h719v-127h-561v-479h516v-127h-516v-518h561v-123q-45 -18 -85 -50t-70.5 -71t-48 -79.5t-17.5 -77.5q0 -43 21.5 -64.5t62.5 -21.5q61 0 137 53z" />
<glyph unicode="&#x119;" horiz-adv-x="1034" d="M903 45q-53 -16 -105.5 -49t-94 -76t-67.5 -92t-26 -98q0 -86 86 -86q63 0 135 53l52 -88q-96 -86 -215 -86q-100 0 -153.5 48t-53.5 130q0 72 42 148.5t122 138.5q-16 -2 -39 -3t-39 -1q-104 0 -188.5 29.5t-143.5 92t-92 161t-33 237.5q0 113 31 211t88 168.5 t140 111.5t190 41q104 0 180 -33.5t123 -90t69.5 -132t22.5 -159.5q0 -20 -1 -52t-3 -57h-680q-4 -211 79 -307t253 -96q145 0 299 55zM776 625q4 141 -63.5 217t-184.5 76q-109 0 -183.5 -76t-90.5 -217h522z" />
<glyph unicode="&#x11a;" horiz-adv-x="1052" d="M186 0v1382h719v-127h-561v-479h516v-127h-516v-518h561v-131h-719zM525 1489l-318 168l47 92l273 -127l274 127l45 -90z" />
<glyph unicode="&#x11b;" horiz-adv-x="1034" d="M776 625q2 139 -63.5 216t-184.5 77q-109 0 -183.5 -77t-90.5 -216h522zM934 621q0 -35 -1 -66t-3 -43h-680q-2 -207 80 -305t252 -98q74 0 147.5 13t151.5 42l22 -121q-180 -61 -342 -61q-233 0 -352 129t-119 393q0 113 31 211t89 169.5t141 111.5t188 40 q102 0 178 -31.5t124 -89t70.5 -133t22.5 -161.5zM529 1178l-271 260l70 78l203 -177l205 177l67 -74z" />
<glyph unicode="&#x11e;" horiz-adv-x="1402" d="M1227 59q-104 -39 -222 -58t-229 -19q-154 0 -282.5 46t-218 134t-135.5 215t-46 285q0 164 49.5 302t145.5 237t230 149.5t308 50.5q98 0 192.5 -15.5t186.5 -44.5l-35 -143q-90 35 -179 52.5t-183 17.5q-106 0 -206.5 -32t-178.5 -107.5t-119 -182t-45 -260.5 q0 -137 37 -242.5t108.5 -179.5t173 -110.5t222.5 -36.5q76 0 141.5 10t126.5 31v538h158v-637v0zM1042 1739q0 -102 -68.5 -170t-189.5 -68q-127 0 -189.5 69.5t-62.5 168.5h103q0 -53 43 -91t108 -38q70 0 111 38t41 91h104v0z" />
<glyph unicode="&#x11f;" horiz-adv-x="1087" d="M872 -172q0 86 -60 133t-194 51l-176 6l-53 5q-74 -45 -111.5 -102.5t-37.5 -119.5q0 -49 20.5 -88t58 -65.5t92 -40t121.5 -13.5q164 0 252 65t88 169zM768 674q0 109 -65.5 176.5t-180.5 67.5q-113 0 -178 -68t-65 -176q0 -109 65.5 -176.5t177.5 -67.5 q115 0 180.5 67.5t65.5 176.5zM1028 -152q0 -82 -37 -151.5t-104.5 -119.5t-164.5 -76.5t-214 -26.5q-201 0 -314.5 78.5t-113.5 222.5q0 86 50 159.5t128 124.5q-45 23 -67.5 60t-22.5 84q0 49 27.5 91t80.5 79q-74 47 -111.5 122.5t-37.5 163.5q0 80 26.5 149t79 120 t128 79.5t174.5 28.5q35 0 69.5 -5t67.5 -13h342v-121h-166q35 -43 53.5 -95t18.5 -112q0 -80 -27 -148.5t-79 -119.5t-128 -80t-174 -29q-33 0 -62.5 3t-58.5 10q-31 -20 -48 -44t-17 -49q0 -37 37.5 -58t125.5 -23l170 -7q184 -6 276.5 -84t92.5 -213zM787 1468 q0 -53 -15.5 -99t-45 -83t-78 -57.5t-109.5 -20.5q-63 0 -109.5 20.5t-76 57.5t-44 83t-14.5 99h107q0 -61 37 -102t102 -41q63 0 100 38t37 105h109z" />
<glyph unicode="&#x122;" horiz-adv-x="1402" d="M1227 59q-104 -39 -222 -58t-229 -19q-154 0 -282.5 46t-218 134t-135.5 215t-46 285q0 164 49.5 302t145.5 237t230 149.5t308 50.5q98 0 192.5 -15.5t186.5 -44.5l-35 -143q-90 35 -179 52.5t-183 17.5q-106 0 -206.5 -32t-178.5 -107.5t-119 -182t-45 -260.5 q0 -137 37 -242.5t108.5 -179.5t173 -110.5t222.5 -36.5q76 0 141.5 10t126.5 31v538h158v-637v0zM598 -432q53 45 72.5 83t19.5 66q0 18 -4 28.5t-10.5 20t-10.5 19.5t-4 27q0 35 23.5 60.5t64.5 25.5q45 0 72 -32t27 -79q0 -55 -43 -127t-158 -149z" />
<glyph unicode="&#x123;" horiz-adv-x="1087" d="M872 -172q0 86 -60 133t-194 51l-176 6l-53 5q-74 -45 -111.5 -102.5t-37.5 -119.5q0 -49 20.5 -88t58 -65.5t92 -40t121.5 -13.5q164 0 252 65t88 169zM768 674q0 109 -65.5 176.5t-180.5 67.5q-113 0 -178 -68t-65 -176q0 -109 65.5 -176.5t177.5 -67.5 q115 0 180.5 67.5t65.5 176.5zM1028 -152q0 -82 -37 -151.5t-104.5 -119.5t-164.5 -76.5t-214 -26.5q-201 0 -314.5 78.5t-113.5 222.5q0 86 50 159.5t128 124.5q-45 23 -67.5 60t-22.5 84q0 49 27.5 91t80.5 79q-74 47 -111.5 122.5t-37.5 163.5q0 80 26.5 149t79 120 t128 79.5t174.5 28.5q35 0 69.5 -5t67.5 -13h342v-121h-166q35 -43 53.5 -95t18.5 -112q0 -80 -27 -148.5t-79 -119.5t-128 -80t-174 -29q-33 0 -62.5 3t-58.5 10q-31 -20 -48 -44t-17 -49q0 -37 37.5 -58t125.5 -23l170 -7q184 -6 276.5 -84t92.5 -213zM528 1161 q-39 0 -67.5 31t-28.5 82q0 61 47 134t154 142l47 -59q-49 -41 -70.5 -78t-21.5 -70q0 -16 4 -26t11 -22.5t10 -22.5t3 -25q0 -37 -25.5 -61.5t-62.5 -24.5z" />
<glyph unicode="&#x12a;" horiz-adv-x="530" d="M186 0v1382h158v-1382h-158zM-9 1538v111h551v-111h-551z" />
<glyph unicode="&#x12b;" horiz-adv-x="526" d="M186 0v1018h154v-1018h-154zM31 1276v117h469v-117h-469z" />
<glyph unicode="&#x12e;" horiz-adv-x="530" d="M461 -391q-47 -41 -101.5 -63.5t-113.5 -22.5q-98 0 -152.5 48t-54.5 130q0 37 9 75t27.5 74.5t46.5 75.5t64 78v1378h158v-1382q-84 -76 -120 -144.5t-36 -125.5q0 -43 22.5 -64.5t63.5 -21.5q59 0 136 53z" />
<glyph unicode="&#x12f;" horiz-adv-x="526" d="M461 -391q-47 -41 -102.5 -63.5t-114.5 -22.5q-96 0 -150.5 48t-54.5 130q0 74 37 148.5t110 154.5v1014h154v-1018q-82 -76 -117 -144.5t-35 -125.5q0 -86 84 -86q61 0 138 53zM371 1346q0 -43 -32 -74t-75 -31q-45 0 -75.5 29.5t-30.5 75.5q0 43 30.5 73.5t75.5 30.5 q43 0 75 -30.5t32 -73.5z" />
<glyph unicode="&#x130;" horiz-adv-x="530" d="M186 0v1382h158v-1382h-158zM375 1602q0 -43 -30.5 -74t-71.5 -31q-43 0 -74 29.5t-31 75.5q0 43 31 73.5t74 30.5t72.5 -29.5t29.5 -74.5z" />
<glyph unicode="&#x131;" horiz-adv-x="526" d="M186 0v1018h154v-1018h-154z" />
<glyph unicode="&#x136;" horiz-adv-x="1185" d="M932 0l-588 694v-694h-158v1382h158v-661l590 661h190l-612 -665l637 -717h-217zM459 -432q53 45 72.5 83t19.5 66q0 18 -4 28.5t-10.5 20t-10.5 19.5t-4 27q0 35 23.5 60.5t64.5 25.5q45 0 72 -32t27 -79q0 -55 -43 -127t-158 -149z" />
<glyph unicode="&#x137;" horiz-adv-x="987" d="M741 0l-401 535v-535h-154v1495h154v-934l383 457h178l-399 -459l438 -559h-199zM361 -432q53 45 72.5 83t19.5 66q0 18 -4 28.5t-10.5 20t-10.5 19.5t-4 27q0 35 23.5 60.5t64.5 25.5q45 0 72 -32t27 -79q0 -55 -43 -127t-158 -149z" />
<glyph unicode="&#x139;" horiz-adv-x="870" d="M186 0v1382h158v-1251h512v-131h-670zM328 1493l-33 90l353 152l49 -125z" />
<glyph unicode="&#x13a;" horiz-adv-x="526" d="M186 0v1495h154v-1495h-154zM209 1616l-33 90l353 152l49 -125z" />
<glyph unicode="&#x13b;" horiz-adv-x="870" d="M186 0v1382h158v-1251h512v-131h-670zM375 -432q53 45 72.5 83t19.5 66q0 18 -4 28.5t-10.5 20t-10.5 19.5t-4 27q0 35 23.5 60.5t64.5 25.5q45 0 72 -32t27 -79q0 -55 -43 -127t-158 -149z" />
<glyph unicode="&#x13c;" horiz-adv-x="526" d="M186 0v1495h154v-1495h-154zM115 -432q53 45 72.5 83t19.5 66q0 18 -4 28.5t-10.5 20t-10.5 19.5t-4 27q0 35 23.5 60.5t64.5 25.5q45 0 72 -32t27 -79q0 -55 -43 -127t-158 -149z" />
<glyph unicode="&#x13d;" horiz-adv-x="874" d="M186 0v1382h158v-1251h512v-131h-670zM589 1257l-90 60l213 299l115 -74z" />
<glyph unicode="&#x13e;" horiz-adv-x="571" d="M186 0v1495h154v-1495h-154zM557 1165l-104 33l117 350l131 -39z" />
<glyph unicode="&#x141;" horiz-adv-x="888" d="M205 0v741l-170 -77l-37 116l207 94v508h155v-434l238 109l37 -117l-275 -125v-684h514v-131h-669z" />
<glyph unicode="&#x142;" horiz-adv-x="589" d="M377 858v-858h-154v774l-137 -80l-41 109l178 102v590h154v-504l149 86l43 -108z" />
<glyph unicode="&#x143;" horiz-adv-x="1421" d="M1081 0h-6l-543 852q-41 63 -71.5 114.5t-54 92.5t-43 75.5t-35.5 69.5h-4q2 -61 5 -159.5t6 -212t4 -230.5t1 -213v-389h-154v1382h154h45l512 -804q43 -68 73.5 -117t53.5 -89t39 -71t31 -61h4q-4 70 -7.5 164t-5.5 200.5t-3 216t-1 209.5v352h154v-1382h-154z M676 1493l-33 90l353 152l49 -125z" />
<glyph unicode="&#x144;" horiz-adv-x="1181" d="M842 0v657q0 127 -42 189.5t-149 62.5q-68 0 -125 -31.5t-99 -89t-64.5 -134t-22.5 -167.5v-487h-154v1018h152q0 -53 -4 -117.5t-12 -109.5l4 -3q45 115 139 181.5t225 66.5q84 0 143.5 -24.5t95.5 -68.5t51 -103.5t15 -130.5v-709h-153zM606 1174l-78 73l248 283 l100 -94z" />
<glyph unicode="&#x145;" horiz-adv-x="1421" d="M1081 0h-6l-543 852q-41 63 -71.5 114.5t-54 92.5t-43 75.5t-35.5 69.5h-4q2 -61 5 -159.5t6 -212t4 -230.5t1 -213v-389h-154v1382h154h45l512 -804q43 -68 73.5 -117t53.5 -89t39 -71t31 -61h4q-4 70 -7.5 164t-5.5 200.5t-3 216t-1 209.5v352h154v-1382h-154z M563 -432q53 45 72.5 83t19.5 66q0 18 -4 28.5t-10.5 20t-10.5 19.5t-4 27q0 35 23.5 60.5t64.5 25.5q45 0 72 -32t27 -79q0 -55 -43 -127t-158 -149z" />
<glyph unicode="&#x146;" horiz-adv-x="1181" d="M842 0v657q0 127 -42 189.5t-149 62.5q-68 0 -125 -31.5t-99 -89t-64.5 -134t-22.5 -167.5v-487h-154v1018h152q0 -53 -4 -117.5t-12 -109.5l4 -3q45 115 139 181.5t225 66.5q84 0 143.5 -24.5t95.5 -68.5t51 -103.5t15 -130.5v-709h-153zM449 -432q53 45 72.5 83 t19.5 66q0 18 -4 28.5t-10.5 20t-10.5 19.5t-4 27q0 35 23.5 60.5t64.5 25.5q45 0 72 -32t27 -79q0 -55 -43 -127t-158 -149z" />
<glyph unicode="&#x147;" horiz-adv-x="1421" d="M1081 0h-6l-543 852q-41 63 -71.5 114.5t-54 92.5t-43 75.5t-35.5 69.5h-4q2 -61 5 -159.5t6 -212t4 -230.5t1 -213v-389h-154v1382h154h45l512 -804q43 -68 73.5 -117t53.5 -89t39 -71t31 -61h4q-4 70 -7.5 164t-5.5 200.5t-3 216t-1 209.5v352h154v-1382h-154z M725 1489l-318 168l47 92l273 -127l274 127l45 -90z" />
<glyph unicode="&#x148;" horiz-adv-x="1181" d="M842 0v657q0 127 -42 189.5t-149 62.5q-68 0 -125 -31.5t-99 -89t-64.5 -134t-22.5 -167.5v-487h-154v1018h152q0 -53 -4 -117.5t-12 -109.5l4 -3q45 115 139 181.5t225 66.5q84 0 143.5 -24.5t95.5 -68.5t51 -103.5t15 -130.5v-709h-153zM598 1178l-271 260l70 78 l203 -177l205 177l67 -74z" />
<glyph unicode="&#x14c;" horiz-adv-x="1449" d="M1192 682q0 268 -120 426t-347 158q-98 0 -183 -37t-148.5 -108.5t-99.5 -178t-36 -240.5q0 -131 29.5 -238.5t89 -185t146.5 -119.5t202 -42q98 0 183 36.5t148.5 108.5t99.5 178.5t36 241.5zM1356 709q0 -172 -50.5 -308.5t-140.5 -229.5t-207.5 -141t-250.5 -48 q-145 0 -260 48t-194 139t-119 219t-40 286q0 172 50.5 308t140.5 229.5t207.5 141.5t250.5 48q145 0 260 -48t194 -139.5t119 -219t40 -285.5zM452 1538v111h551v-111h-551z" />
<glyph unicode="&#x14d;" horiz-adv-x="1110" d="M864 510q0 188 -82 293.5t-225 105.5q-70 0 -127 -25.5t-98 -76.5t-62.5 -126t-21.5 -173q0 -188 81 -292.5t224 -104.5q68 0 124 23.5t98 72.5t65.5 125t23.5 178zM1022 520q0 -113 -30.5 -211t-92 -172t-153 -114.5t-207.5 -40.5q-102 0 -185.5 31.5t-142.5 96t-91 162 t-32 226.5q0 113 32 211t93 171.5t152.5 114.5t207.5 41q102 0 185.5 -31.5t141.5 -96t90 -162t32 -226.5zM311 1276v117h502v-117h-502z" />
<glyph unicode="&#x150;" horiz-adv-x="1449" d="M1192 682q0 268 -120 426t-347 158q-98 0 -183 -37t-148.5 -108.5t-99.5 -178t-36 -240.5q0 -131 29.5 -238.5t89 -185t146.5 -119.5t202 -42q98 0 183 36.5t148.5 108.5t99.5 178.5t36 241.5zM1356 709q0 -172 -50.5 -308.5t-140.5 -229.5t-207.5 -141t-250.5 -48 q-145 0 -260 48t-194 139t-119 219t-40 286q0 172 50.5 308t140.5 229.5t207.5 141.5t250.5 48q145 0 260 -48t194 -139.5t119 -219t40 -285.5zM565 1491l-78 74l222 250l98 -93zM911 1491l-76 74l259 245l94 -94z" />
<glyph unicode="&#x151;" horiz-adv-x="1110" d="M864 510q0 188 -82 293.5t-225 105.5q-70 0 -127 -25.5t-98 -76.5t-62.5 -126t-21.5 -173q0 -188 81 -292.5t224 -104.5q68 0 124 23.5t98 72.5t65.5 125t23.5 178zM1022 520q0 -113 -30.5 -211t-92 -172t-153 -114.5t-207.5 -40.5q-102 0 -185.5 31.5t-142.5 96t-91 162 t-32 226.5q0 113 32 211t93 171.5t152.5 114.5t207.5 41q102 0 185.5 -31.5t141.5 -96t90 -162t32 -226.5zM414 1178l-78 69l232 275l100 -86zM756 1178l-78 69l252 264l99 -88z" />
<glyph unicode="&#x152;" horiz-adv-x="1792" d="M944 1237q-47 14 -104.5 21.5t-114.5 7.5q-98 0 -183 -37t-148.5 -108.5t-99.5 -178t-36 -240.5q0 -131 29.5 -238.5t89 -185t146.5 -119.5t202 -42q47 0 109.5 7t109.5 17v1096zM952 0q-113 -18 -245 -18q-145 0 -260 48t-194 139t-119 219t-40 286q0 172 50.5 308 t140.5 229.5t207.5 141.5t250.5 48q125 0 220 -19h675v-127h-538v-479h514v-127h-514v-518h538v-131h-686z" />
<glyph unicode="&#x153;" horiz-adv-x="1798" d="M864 510q0 188 -82 293.5t-225 105.5q-70 0 -127 -25.5t-98 -76.5t-62.5 -126t-21.5 -173q0 -188 81 -292.5t224 -104.5q68 0 124 23.5t98 72.5t65.5 125t23.5 178zM1540 635q2 131 -63.5 207t-182.5 76q-109 0 -182.5 -75t-91.5 -208h520zM1700 625q0 -33 -1 -61.5 t-3 -41.5h-680q-8 -213 76 -313t254 -100q150 0 299 55l22 -121q-178 -61 -342 -61q-158 0 -254 57t-143 164q-55 -100 -151.5 -160.5t-237.5 -60.5q-211 0 -331 130t-120 386q0 113 32 211t93 171.5t152.5 114.5t207.5 41q127 0 223.5 -53t149.5 -158q53 98 143.5 154.5 t213.5 56.5q102 0 177.5 -31.5t125 -89t72 -131t22.5 -159.5z" />
<glyph unicode="&#x154;" horiz-adv-x="1155" d="M840 1001q0 127 -85 195t-243 68q-82 0 -168 -7v-522q20 0 66.5 -1t93.5 -1q162 0 249 70.5t87 197.5zM901 0l-446 614h-111v-614h-158v1380q45 2 142.5 5.5t199.5 3.5q106 0 193.5 -21.5t151 -67t97.5 -115t34 -163.5q0 -90 -30 -159.5t-83 -119t-122 -77t-148 -37.5 q16 -16 48.5 -57.5t67.5 -88.5l361 -483h-197zM459 1493l-33 90l353 152l49 -125z" />
<glyph unicode="&#x155;" horiz-adv-x="724" d="M672 883q-170 29 -251 -94t-81 -381v-408h-154v1018h152q0 -51 -6 -121t-17 -135l2 -2q14 55 43 108.5t73 93t104.5 60t140.5 12.5zM434 1174l-78 73l248 283l100 -94z" />
<glyph unicode="&#x156;" horiz-adv-x="1155" d="M840 1001q0 127 -85 195t-243 68q-82 0 -168 -7v-522q20 0 66.5 -1t93.5 -1q162 0 249 70.5t87 197.5zM901 0l-446 614h-111v-614h-158v1380q45 2 142.5 5.5t199.5 3.5q106 0 193.5 -21.5t151 -67t97.5 -115t34 -163.5q0 -90 -30 -159.5t-83 -119t-122 -77t-148 -37.5 q16 -16 48.5 -57.5t67.5 -88.5l361 -483h-197zM432 -432q53 45 72.5 83t19.5 66q0 18 -4 28.5t-10.5 20t-10.5 19.5t-4 27q0 35 23.5 60.5t64.5 25.5q45 0 72 -32t27 -79q0 -55 -43 -127t-158 -149z" />
<glyph unicode="&#x157;" horiz-adv-x="724" d="M672 883q-170 29 -251 -94t-81 -381v-408h-154v1018h152q0 -51 -6 -121t-17 -135l2 -2q14 55 43 108.5t73 93t104.5 60t140.5 12.5zM129 -432q53 45 72.5 83t19.5 66q0 18 -4 28.5t-10.5 20t-10.5 19.5t-4 27q0 35 23.5 60.5t64.5 25.5q45 0 72 -32t27 -79 q0 -55 -43 -127t-158 -149z" />
<glyph unicode="&#x158;" horiz-adv-x="1155" d="M840 1001q0 127 -85 195t-243 68q-82 0 -168 -7v-522q20 0 66.5 -1t93.5 -1q162 0 249 70.5t87 197.5zM901 0l-446 614h-111v-614h-158v1380q45 2 142.5 5.5t199.5 3.5q106 0 193.5 -21.5t151 -67t97.5 -115t34 -163.5q0 -90 -30 -159.5t-83 -119t-122 -77t-148 -37.5 q16 -16 48.5 -57.5t67.5 -88.5l361 -483h-197zM529 1489l-318 168l47 92l273 -127l274 127l45 -90z" />
<glyph unicode="&#x159;" horiz-adv-x="724" d="M672 883q-170 29 -251 -94t-81 -381v-408h-154v1018h152q0 -51 -6 -121t-17 -135l2 -2q14 55 43 108.5t73 93t104.5 60t140.5 12.5zM432 1178l-271 260l70 78l203 -177l205 177l67 -74z" />
<glyph unicode="&#x15a;" horiz-adv-x="1032" d="M922 383q0 -88 -33 -160.5t-96.5 -127t-156.5 -84t-212 -29.5q-80 0 -160 11t-145 30l22 149q66 -25 142.5 -39t150.5 -14q72 0 131.5 14t102.5 44t66.5 77t23.5 113q0 78 -43 129t-98.5 79.5t-169 76.5t-180 91t-110.5 113t-44 174q0 82 31.5 149.5t92 118t148.5 77 t197 26.5q59 0 124.5 -7.5t122.5 -19.5l-18 -141q-57 16 -119.5 26.5t-122.5 10.5q-145 0 -221 -59.5t-76 -166.5q0 -76 44 -126t97.5 -76.5t169 -75.5t183.5 -93t112 -115t44 -175zM465 1493l-33 90l353 152l49 -125z" />
<glyph unicode="&#x15b;" horiz-adv-x="876" d="M768 287q0 -63 -26.5 -118.5t-79 -97.5t-130 -65.5t-174.5 -23.5q-61 0 -126.5 8t-116.5 20l14 142q51 -18 118.5 -30.5t127.5 -12.5q113 0 174 44t61 121q0 57 -33.5 91t-70.5 49.5t-129 48.5t-145.5 63.5t-87 85t-33.5 138.5q0 61 24.5 112t74.5 91t123 61.5t167 21.5 q49 0 101 -5t101 -15l-14 -131q-47 14 -100 22t-105 8q-106 0 -161.5 -40.5t-55.5 -112.5q0 -55 34 -90t71 -50.5t130 -48t145 -63.5t87 -85t35 -138zM403 1174l-78 73l248 283l100 -94z" />
<glyph unicode="&#x15e;" horiz-adv-x="1032" d="M922 383q0 -88 -33 -160.5t-96.5 -127t-156.5 -84t-212 -29.5q-80 0 -160 11t-145 30l22 149q66 -25 142.5 -39t150.5 -14q72 0 131.5 14t102.5 44t66.5 77t23.5 113q0 78 -43 129t-98.5 79.5t-169 76.5t-180 91t-110.5 113t-44 174q0 82 31.5 149.5t92 118t148.5 77 t197 26.5q59 0 124.5 -7.5t122.5 -19.5l-18 -141q-57 16 -119.5 26.5t-122.5 10.5q-145 0 -221 -59.5t-76 -166.5q0 -76 44 -126t97.5 -76.5t169 -75.5t183.5 -93t112 -115t44 -175zM540 -84q74 -96 60 -192.5t-107 -204.5h-129q43 53 67.5 96t30 82t-8 79t-50.5 83z" />
<glyph unicode="&#x15f;" horiz-adv-x="876" d="M768 287q0 -63 -26.5 -118.5t-79 -97.5t-130 -65.5t-174.5 -23.5q-61 0 -126.5 8t-116.5 20l14 142q51 -18 118.5 -30.5t127.5 -12.5q113 0 174 44t61 121q0 57 -33.5 91t-70.5 49.5t-129 48.5t-145.5 63.5t-87 85t-33.5 138.5q0 61 24.5 112t74.5 91t123 61.5t167 21.5 q49 0 101 -5t101 -15l-14 -131q-47 14 -100 22t-105 8q-106 0 -161.5 -40.5t-55.5 -112.5q0 -55 34 -90t71 -50.5t130 -48t145 -63.5t87 -85t35 -138zM471 -84q74 -96 60 -192.5t-107 -204.5h-129q43 53 67.5 96t30 82t-8 79t-50.5 83z" />
<glyph unicode="&#x160;" horiz-adv-x="1032" d="M922 383q0 -88 -33 -160.5t-96.5 -127t-156.5 -84t-212 -29.5q-80 0 -160 11t-145 30l22 149q66 -25 142.5 -39t150.5 -14q72 0 131.5 14t102.5 44t66.5 77t23.5 113q0 78 -43 129t-98.5 79.5t-169 76.5t-180 91t-110.5 113t-44 174q0 82 31.5 149.5t92 118t148.5 77 t197 26.5q59 0 124.5 -7.5t122.5 -19.5l-18 -141q-57 16 -119.5 26.5t-122.5 10.5q-145 0 -221 -59.5t-76 -166.5q0 -76 44 -126t97.5 -76.5t169 -75.5t183.5 -93t112 -115t44 -175zM516 1489l-318 168l47 92l273 -127l274 127l45 -90z" />
<glyph unicode="&#x161;" horiz-adv-x="876" d="M768 287q0 -63 -26.5 -118.5t-79 -97.5t-130 -65.5t-174.5 -23.5q-61 0 -126.5 8t-116.5 20l14 142q51 -18 118.5 -30.5t127.5 -12.5q113 0 174 44t61 121q0 57 -33.5 91t-70.5 49.5t-129 48.5t-145.5 63.5t-87 85t-33.5 138.5q0 61 24.5 112t74.5 91t123 61.5t167 21.5 q49 0 101 -5t101 -15l-14 -131q-47 14 -100 22t-105 8q-106 0 -161.5 -40.5t-55.5 -112.5q0 -55 34 -90t71 -50.5t130 -48t145 -63.5t87 -85t35 -138zM441 1178l-271 260l70 78l203 -177l205 177l67 -74z" />
<glyph unicode="&#x162;" horiz-adv-x="1062" d="M608 1251v-1251h-155v1251h-414v131h985v-131h-416zM589 -84q74 -96 60 -192.5t-107 -204.5h-129q43 53 67.5 96t30 82t-8 79t-50.5 83z" />
<glyph unicode="&#x163;" horiz-adv-x="757" d="M688 6q-43 -10 -95 -16t-97 -6q-76 0 -126.5 17t-81 54t-44 93.5t-13.5 138.5v610h-217v121h217v338l154 43v-381h297v-121h-297v-567q0 -63 7 -104.5t23.5 -65t45 -33.5t74.5 -10q76 0 141 16zM499 -84q74 -96 60 -192.5t-107 -204.5h-129q43 53 67.5 96t30 82t-8 79 t-50.5 83z" />
<glyph unicode="&#x164;" horiz-adv-x="1062" d="M608 1251v-1251h-155v1251h-414v131h985v-131h-416zM527 1489l-318 168l47 92l273 -127l274 127l45 -90z" />
<glyph unicode="&#x165;" horiz-adv-x="763" d="M688 6q-43 -10 -95 -16t-97 -6q-76 0 -126.5 17t-81 54t-44 93.5t-13.5 138.5v610h-217v121h217v338l154 43v-381h297v-121h-297v-567q0 -63 7 -104.5t23.5 -65t45 -33.5t74.5 -10q76 0 141 16zM616 1165l-104 33l117 350l131 -39z" />
<glyph unicode="&#x16a;" horiz-adv-x="1427" d="M1241 524q0 -266 -138 -404t-407 -138q-154 0 -255 38.5t-156.5 106.5t-77 150.5t-21.5 181.5v923h158v-909q0 -80 16.5 -144.5t56.5 -113.5t111.5 -76.5t180.5 -27.5q195 0 286.5 92t91.5 309v870h154v-858zM440 1538v111h551v-111h-551z" />
<glyph unicode="&#x16b;" horiz-adv-x="1181" d="M844 0q0 51 4 115.5t12 111.5l-4 2q-43 -113 -136 -180t-228 -67q-88 0 -146.5 25.5t-94.5 69.5t-50.5 104.5t-14.5 127.5v709h154v-658q0 -121 40 -186t150 -65q68 0 125.5 31.5t99.5 88t64.5 134t22.5 167.5v488h153v-1018h-151zM342 1276v117h502v-117h-502z" />
<glyph unicode="&#x16e;" horiz-adv-x="1427" d="M1241 524q0 -266 -138 -404t-407 -138q-154 0 -255 38.5t-156.5 106.5t-77 150.5t-21.5 181.5v923h158v-909q0 -80 16.5 -144.5t56.5 -113.5t111.5 -76.5t180.5 -27.5q195 0 286.5 92t91.5 309v870h154v-858zM940 1640q0 -92 -62.5 -154.5t-173.5 -62.5 q-100 0 -158.5 51.5t-58.5 155.5q0 92 62.5 153.5t173.5 61.5q100 0 158.5 -50.5t58.5 -154.5zM819 1634q0 119 -106 119q-41 0 -74 -28.5t-33 -88.5q0 -119 107 -119q41 0 73.5 29t32.5 88z" />
<glyph unicode="&#x16f;" horiz-adv-x="1181" d="M844 0q0 51 4 115.5t12 111.5l-4 2q-43 -113 -136 -180t-228 -67q-88 0 -146.5 25.5t-94.5 69.5t-50.5 104.5t-14.5 127.5v709h154v-658q0 -121 40 -186t150 -65q68 0 125.5 31.5t99.5 88t64.5 134t22.5 167.5v488h153v-1018h-151zM815 1350q0 -92 -61.5 -156t-172.5 -64 q-100 0 -157.5 52.5t-57.5 156.5q0 92 61.5 156t172.5 64q100 0 157.5 -52.5t57.5 -156.5zM698 1343q0 121 -106 121q-41 0 -74 -28.5t-33 -89.5q0 -121 105 -121q41 0 74.5 28.5t33.5 89.5z" />
<glyph unicode="&#x170;" horiz-adv-x="1427" d="M1241 524q0 -266 -138 -404t-407 -138q-154 0 -255 38.5t-156.5 106.5t-77 150.5t-21.5 181.5v923h158v-909q0 -80 16.5 -144.5t56.5 -113.5t111.5 -76.5t180.5 -27.5q195 0 286.5 92t91.5 309v870h154v-858zM528 1491l-78 74l222 250l98 -93zM874 1491l-76 74l259 245 l94 -94z" />
<glyph unicode="&#x171;" horiz-adv-x="1181" d="M844 0q0 51 4 115.5t12 111.5l-4 2q-43 -113 -136 -180t-228 -67q-88 0 -146.5 25.5t-94.5 69.5t-50.5 104.5t-14.5 127.5v709h154v-658q0 -121 40 -186t150 -65q68 0 125.5 31.5t99.5 88t64.5 134t22.5 167.5v488h153v-1018h-151zM436 1178l-78 69l232 275l100 -86z M778 1178l-78 69l252 264l99 -88z" />
<glyph unicode="&#x172;" horiz-adv-x="1427" d="M1241 524q0 -268 -137 -405q-51 -49 -123 -90t-137 -107q-96 -96 -96 -192q0 -86 83 -86q35 0 68 13t70 40l51 -88q-96 -86 -217 -86q-98 0 -151.5 48t-53.5 130q0 74 41 148.5t123 136.5q-16 -2 -35.5 -3t-36.5 -1q-158 0 -256 40.5t-153.5 108.5t-75 153t-19.5 175v923 h158v-909q0 -74 15.5 -140.5t55.5 -115.5t110.5 -77.5t183.5 -28.5q190 0 284 90t94 311v870h154v-858z" />
<glyph unicode="&#x173;" horiz-adv-x="1181" d="M1108 -391q-49 -43 -103.5 -64.5t-113.5 -21.5q-98 0 -152.5 48t-54.5 130q0 39 11.5 78t35 79t59 78.5t84.5 75.5q-8 57 -11 111.5t-1 93.5h-2q-51 -109 -145 -172t-223 -63q-84 0 -143.5 24.5t-95.5 68.5t-51.5 103.5t-15.5 130.5v709h154v-658q0 -127 42 -189t148 -62 q68 0 125.5 31.5t99.5 89t64.5 134t22.5 166.5v488h153v-647q0 -96 8.5 -193.5t22.5 -177.5q-104 -76 -148 -142.5t-44 -127.5q0 -86 86 -86q63 0 135 53z" />
<glyph unicode="&#x178;" horiz-adv-x="1079" d="M616 541v-541h-155v541l-453 841h174l252 -475q31 -61 56.5 -114.5t52.5 -114.5h2q27 59 54.5 118.5t57.5 114.5l248 471h166zM420 1595q-2 -43 -26.5 -68.5t-69.5 -27.5q-43 2 -69 28.5t-28 67.5q2 41 29 68t68 29q43 -2 68.5 -29t27.5 -68zM856 1595 q-2 -45 -30.5 -70.5t-67.5 -25.5q-45 2 -68.5 28.5t-25.5 67.5q2 41 28.5 69t65.5 28q41 -2 68.5 -27t29.5 -70z" />
<glyph unicode="&#x179;" horiz-adv-x="1105" d="M94 0v115l613 952q29 43 62.5 92t59.5 88q-66 -2 -144.5 -3t-178.5 -1h-389v139h891v-116l-646 -996q-16 -27 -47.5 -72.5t-40.5 -60.5q31 4 112 5t251 1h377v-143h-920zM516 1493l-33 90l353 152l49 -125z" />
<glyph unicode="&#x17a;" horiz-adv-x="913" d="M100 0v109l518 776q-55 -2 -131.5 -3t-156.5 -1h-219v137h684v-107l-514 -774q47 2 136 3t158 1h230v-141h-705zM461 1174l-78 73l248 283l100 -94z" />
<glyph unicode="&#x17b;" horiz-adv-x="1105" d="M94 0v115l613 952q29 43 62.5 92t59.5 88q-66 -2 -144.5 -3t-178.5 -1h-389v139h891v-116l-646 -996q-16 -27 -47.5 -72.5t-40.5 -60.5q31 4 112 5t251 1h377v-143h-920zM655 1602q0 -43 -30.5 -74t-71.5 -31q-43 0 -74 29.5t-31 75.5q0 43 31 73.5t74 30.5t72.5 -29.5 t29.5 -74.5z" />
<glyph unicode="&#x17c;" horiz-adv-x="913" d="M100 0v109l518 776q-55 -2 -131.5 -3t-156.5 -1h-219v137h684v-107l-514 -774q47 2 136 3t158 1h230v-141h-705zM551 1343q0 -43 -30.5 -72.5t-71.5 -29.5q-43 0 -74 29.5t-31 72.5t31 74t74 31t72.5 -30t29.5 -75z" />
<glyph unicode="&#x17d;" horiz-adv-x="1105" d="M94 0v115l613 952q29 43 62.5 92t59.5 88q-66 -2 -144.5 -3t-178.5 -1h-389v139h891v-116l-646 -996q-16 -27 -47.5 -72.5t-40.5 -60.5q31 4 112 5t251 1h377v-143h-920zM559 1489l-318 168l47 92l273 -127l274 127l45 -90z" />
<glyph unicode="&#x17e;" horiz-adv-x="913" d="M100 0v109l518 776q-55 -2 -131.5 -3t-156.5 -1h-219v137h684v-107l-514 -774q47 2 136 3t158 1h230v-141h-705zM455 1178l-271 260l70 78l203 -177l205 177l67 -74z" />
<glyph unicode="&#x192;" horiz-adv-x="894" d="M385 188q-14 -137 -42 -235t-75 -159.5t-116.5 -90.5t-169.5 -29q-35 0 -74 4.5t-74 14.5l27 135q31 -10 70.5 -18.5t78.5 -8.5q53 0 89 15.5t60.5 54.5t40 106.5t27.5 169.5l58 564h-254v120h266l31 283q20 182 112 289.5t271 107.5q31 0 70.5 -3t74.5 -9l-20 -129 q-72 16 -150 16q-92 0 -140 -60t-63 -193l-30 -302h344v-120h-357z" />
<glyph unicode="&#x218;" horiz-adv-x="1032" d="M922 383q0 -88 -33 -160.5t-96.5 -127t-156.5 -84t-212 -29.5q-80 0 -160 11t-145 30l22 149q66 -25 142.5 -39t150.5 -14q72 0 131.5 14t102.5 44t66.5 77t23.5 113q0 78 -43 129t-98.5 79.5t-169 76.5t-180 91t-110.5 113t-44 174q0 82 31.5 149.5t92 118t148.5 77 t197 26.5q59 0 124.5 -7.5t122.5 -19.5l-18 -141q-57 16 -119.5 26.5t-122.5 10.5q-145 0 -221 -59.5t-76 -166.5q0 -76 44 -126t97.5 -76.5t169 -75.5t183.5 -93t112 -115t44 -175zM350 -432q53 45 72.5 83t19.5 66q0 18 -4 28.5t-10.5 20t-10.5 19.5t-4 27q0 35 23.5 60.5 t64.5 25.5q45 0 72 -32t27 -79q0 -55 -43 -127t-158 -149z" />
<glyph unicode="&#x219;" horiz-adv-x="876" d="M768 287q0 -63 -26.5 -118.5t-79 -97.5t-130 -65.5t-174.5 -23.5q-61 0 -126.5 8t-116.5 20l14 142q51 -18 118.5 -30.5t127.5 -12.5q113 0 174 44t61 121q0 57 -33.5 91t-70.5 49.5t-129 48.5t-145.5 63.5t-87 85t-33.5 138.5q0 61 24.5 112t74.5 91t123 61.5t167 21.5 q49 0 101 -5t101 -15l-14 -131q-47 14 -100 22t-105 8q-106 0 -161.5 -40.5t-55.5 -112.5q0 -55 34 -90t71 -50.5t130 -48t145 -63.5t87 -85t35 -138zM285 -432q53 45 72.5 83t19.5 66q0 18 -4 28.5t-10.5 20t-10.5 19.5t-4 27q0 35 23.5 60.5t64.5 25.5q45 0 72 -32t27 -79 q0 -55 -43 -127t-158 -149z" />
<glyph unicode="&#x21a;" horiz-adv-x="1062" d="M608 1251v-1251h-155v1251h-414v131h985v-131h-416zM383 -432q53 45 72.5 83t19.5 66q0 18 -4 28.5t-10.5 20t-10.5 19.5t-4 27q0 35 23.5 60.5t64.5 25.5q45 0 72 -32t27 -79q0 -55 -43 -127t-158 -149z" />
<glyph unicode="&#x21b;" horiz-adv-x="757" d="M688 6q-43 -10 -95 -16t-97 -6q-76 0 -126.5 17t-81 54t-44 93.5t-13.5 138.5v610h-217v121h217v338l154 43v-381h297v-121h-297v-567q0 -63 7 -104.5t23.5 -65t45 -33.5t74.5 -10q76 0 141 16zM289 -432q53 45 72.5 83t19.5 66q0 18 -4 28.5t-10.5 20t-10.5 19.5t-4 27 q0 35 23.5 60.5t64.5 25.5q45 0 72 -32t27 -79q0 -55 -43 -127t-158 -149z" />
<glyph unicode="&#x2c6;" horiz-adv-x="913" d="M657 1178l-200 176l-205 -176l-68 71l275 267l272 -263z" />
<glyph unicode="&#x2c7;" horiz-adv-x="913" d="M455 1178l-271 260l70 78l203 -177l205 177l67 -74z" />
<glyph unicode="&#x2d8;" horiz-adv-x="860" d="M676 1468q0 -53 -15.5 -99t-45 -83t-78 -57.5t-109.5 -20.5q-63 0 -109.5 20.5t-76 57.5t-44 83t-14.5 99h107q0 -61 37 -102t102 -41q63 0 100 38t37 105h109z" />
<glyph unicode="&#x2d9;" horiz-adv-x="575" d="M391 1343q0 -43 -30.5 -72.5t-71.5 -29.5q-43 0 -74 29.5t-31 72.5t31 74t74 31t72.5 -30t29.5 -75z" />
<glyph unicode="&#x2da;" horiz-adv-x="817" d="M633 1350q0 -92 -61.5 -156t-172.5 -64q-100 0 -157.5 52.5t-57.5 156.5q0 92 61.5 156t172.5 64q100 0 157.5 -52.5t57.5 -156.5zM516 1343q0 121 -106 121q-41 0 -74 -28.5t-33 -89.5q0 -121 105 -121q41 0 74.5 28.5t33.5 89.5z" />
<glyph unicode="&#x2db;" horiz-adv-x="790" d="M526 0q-113 -80 -152.5 -146.5t-39.5 -123.5q0 -86 84 -86q35 0 67.5 13t69.5 40l51 -88q-96 -86 -215 -86q-100 0 -153.5 48t-53.5 130q0 78 45 157t144 154z" />
<glyph unicode="&#x2dc;" horiz-adv-x="1050" d="M866 1376q-39 -70 -93 -108.5t-120 -38.5q-49 0 -85 17.5t-64.5 40t-55 39.5t-59.5 17q-70 -2 -125 -98l-80 64q39 72 93.5 110.5t121.5 38.5q49 0 84 -18.5t63.5 -40t55.5 -39t60 -17.5q72 0 126 97l78 -64v0z" />
<glyph unicode="&#x2dd;" horiz-adv-x="1058" d="M262 1178l-78 69l232 275l100 -86zM604 1178l-78 69l252 264l99 -88z" />
<glyph unicode="&#x312;" horiz-adv-x="0" d="M-592 1161q-39 0 -67.5 31t-28.5 82q0 61 47 134t154 142l47 -59q-49 -41 -70.5 -78t-21.5 -70q0 -16 4 -26t11 -22.5t10 -22.5t3 -25q0 -37 -25.5 -61.5t-62.5 -24.5z" />
<glyph unicode="&#x315;" horiz-adv-x="45" d="M12 1165l-104 33l117 350l131 -39z" />
<glyph unicode="&#x326;" horiz-adv-x="0" d="M-737 -432q53 45 72.5 83t19.5 66q0 18 -4 28.5t-10.5 20t-10.5 19.5t-4 27q0 35 23.5 60.5t64.5 25.5q45 0 72 -32t27 -79q0 -55 -43 -127t-158 -149z" />
<glyph unicode="&#x394;" horiz-adv-x="1239" d="M649 1112q-23 72 -35 131h-4q-8 -31 -17 -65.5t-22 -71.5l-344 -969h768zM59 0v113l465 1269h189l467 -1269v-113h-1121z" />
<glyph unicode="&#x3a9;" horiz-adv-x="1478" d="M903 0v131q68 53 122 110.5t92 126t59.5 150.5t21.5 184q0 121 -28.5 224.5t-86 178.5t-143.5 118t-201 43q-96 0 -179 -38t-145.5 -109.5t-98 -174t-35.5 -231.5q0 -98 16 -178t51 -149t91.5 -131t135.5 -124v-131h-481v133h305q-129 92 -207.5 234.5t-78.5 334.5 q0 166 50 296t138 219.5t205 136.5t252 47q129 0 240.5 -42t192.5 -127t128 -212t47 -297q0 -102 -24.5 -190.5t-65.5 -162t-94.5 -133t-112.5 -104.5h317v-133h-483z" />
<glyph unicode="&#x3bc;" horiz-adv-x="1204" d="M1122 -10q-20 -2 -36.5 -3t-30.5 -1q-111 0 -156 61.5t-35 177.5l-2 2q-43 -111 -132 -177t-218 -66q-63 0 -111.5 19.5t-74.5 59.5l18 -573h-158v1528h154v-676q0 -119 46 -176t144 -57q70 0 127.5 31.5t98.5 88t63.5 134t22.5 169.5v486h153v-672q0 -74 6.5 -119 t20.5 -70.5t38.5 -33.5t61.5 -8v-125z" />
<glyph unicode="&#x3c0;" horiz-adv-x="1298" d="M961 891q0 -213 11 -356.5t27 -235.5q20 -106 47 -145t72 -39q23 0 47.5 4t46.5 10l19 -127q-25 -8 -61.5 -12t-73.5 -4q-106 0 -164 62.5t-86 219.5q-39 201 -39 623h-369q4 -223 -26.5 -448.5t-102.5 -450.5l-174 16q80 225 120 442.5t36 440.5h-264v127h1200v-127 h-266z" />
<glyph unicode="&#x1e9e;" horiz-adv-x="1404" d="M813 776q229 -6 355 -105.5t126 -279.5q0 -80 -31.5 -153.5t-93 -130t-151.5 -91t-207 -34.5q-59 0 -127 8t-129 18l14 144q57 -16 125 -26.5t133 -10.5q135 0 219 69.5t84 194.5q0 123 -91 197.5t-294 74.5h-106v107l381 491q-66 10 -138.5 16.5t-152.5 6.5 q-385 0 -385 -383v-889h-158v887q0 262 142.5 388t410.5 126q109 0 222.5 -9.5t230.5 -25.5v-106z" />
<glyph unicode="&#x2013;" d="M0 543v135h1126v-135h-1126z" />
<glyph unicode="&#x2014;" horiz-adv-x="2048" d="M248 543v135h1552v-135h-1552z" />
<glyph unicode="&#x2018;" horiz-adv-x="479" d="M393 1470q-47 -51 -72.5 -95t-35 -79.5t-4 -63.5t21.5 -48q18 -25 20.5 -52.5t-9 -51t-34 -39t-53.5 -15.5q-49 0 -80.5 40t-28.5 109.5t51 160.5t157 194l67 -60v0z" />
<glyph unicode="&#x2019;" horiz-adv-x="479" d="M250 1518q51 0 81.5 -41t27.5 -113t-54 -163t-153 -187l-68 59q45 51 71.5 94t35 79t4 64.5t-20.5 49.5q-18 25 -21 52.5t9 51t34.5 39t53.5 15.5z" />
<glyph unicode="&#x201a;" horiz-adv-x="479" d="M250 203q51 0 81.5 -41t27.5 -113t-54 -163t-153 -187l-68 59q45 51 71.5 94.5t35 79t4 64.5t-20.5 49q-18 25 -21 52.5t9 51t34.5 39t53.5 15.5z" />
<glyph unicode="&#x201c;" horiz-adv-x="845" d="M393 1470q-45 -49 -71.5 -93t-36 -79.5t-4 -64.5t21.5 -49q18 -25 20.5 -52.5t-9 -51t-34 -39t-53.5 -15.5q-51 0 -81.5 41t-27.5 112.5t54 163t154 187.5zM758 1470q-45 -49 -72 -93t-35 -79.5t-3 -64.5t22 -49q18 -25 20 -52.5t-9 -51t-33.5 -39t-53.5 -15.5 q-51 0 -83 41t-29 112.5t54.5 163t153.5 187.5z" />
<glyph unicode="&#x201d;" horiz-adv-x="845" d="M250 1518q51 0 81.5 -41t27.5 -113t-54 -163t-153 -187l-68 59q45 51 71.5 94t35 79t4 64.5t-20.5 49.5q-18 25 -21 52.5t9 51t34.5 39t53.5 15.5zM614 1518q51 0 83 -41t28 -113t-54 -163t-155 -187l-67 59q90 96 107 169t-17 118q-18 25 -20.5 52.5t9 51t33.5 39 t53 15.5z" />
<glyph unicode="&#x201e;" horiz-adv-x="845" d="M250 203q51 0 81.5 -41t27.5 -113t-54 -163t-153 -187l-68 59q45 51 71.5 94.5t35 79t4 64.5t-20.5 49q-18 25 -21 52.5t9 51t34.5 39t53.5 15.5zM614 203q51 0 83 -41t28 -113t-54 -163t-155 -187l-67 59q90 96 107 169t-17 118q-18 25 -20.5 52.5t9 51t33.5 39t53 15.5 z" />
<glyph unicode="&#x2020;" horiz-adv-x="911" d="M516 1159l31 -207l-35 -510h-113l-34 510l30 207h-291v121h291l-30 281h182l-31 -281h291v-121h-291z" />
<glyph unicode="&#x2021;" horiz-adv-x="911" d="M516 612l31 -272h-182l30 272h-291v121h291l-30 217l30 219h-291v119h291l-30 273h182l-31 -273h291v-119h-291l31 -219l-31 -217h291v-121h-291z" />
<glyph unicode="&#x2022;" horiz-adv-x="858" d="M655 608q0 -47 -18.5 -88t-49 -71.5t-71.5 -48t-86 -17.5q-47 0 -88 17.5t-71.5 48t-48 71.5t-17.5 88t17.5 88t48 72t71.5 48.5t88 17.5q45 0 86 -17.5t71.5 -48.5t49 -72t18.5 -88z" />
<glyph unicode="&#x2026;" horiz-adv-x="1314" d="M330 92q0 -45 -33 -76.5t-78 -31.5t-76.5 31.5t-31.5 76.5t31.5 77t76.5 32q47 0 79 -32t32 -77zM754 92q0 -45 -32 -76.5t-77 -31.5t-76.5 31.5t-31.5 76.5t31.5 77t76.5 32q47 0 78 -31t31 -78zM1180 92q0 -45 -32 -76.5t-77 -31.5t-77.5 31.5t-32.5 76.5t31.5 77 t78.5 32q45 0 77 -32t32 -77z" />
<glyph unicode="&#x2030;" horiz-adv-x="2078" d="M649 1106q0 -78 -22.5 -138.5t-61.5 -101.5t-90 -62.5t-108 -21.5q-119 0 -192 69t-73 226q0 76 22.5 136.5t61.5 101.5t90.5 62.5t108.5 21.5t105.5 -16.5t84 -51.5t55 -90t19.5 -135zM522 1092q0 100 -32.5 150t-110.5 50q-70 0 -109 -55t-39 -147q0 -100 33 -150.5 t111 -50.5q70 0 108.5 55.5t38.5 147.5zM211 -31l-96 74l1085 1370l98 -76zM1311 307q0 -78 -22.5 -138t-61.5 -102t-90.5 -63.5t-108.5 -21.5q-119 0 -191.5 68.5t-72.5 225.5q0 76 22.5 136.5t61.5 101.5t90 62.5t109 21.5q57 0 105 -15.5t84 -50t55.5 -90t19.5 -135.5z M1184 293q0 98 -33 148.5t-111 50.5q-70 0 -108.5 -54.5t-38.5 -146.5q0 -102 32.5 -152.5t110.5 -50.5q70 0 109 55.5t39 149.5zM1956 307q0 -78 -22.5 -138t-60.5 -102t-90 -63.5t-110 -21.5q-117 0 -190.5 68.5t-73.5 225.5q0 76 22.5 136.5t61.5 101.5t91 62.5t110 21.5 q57 0 105 -15.5t83 -50t54.5 -90t19.5 -135.5zM1829 293q0 98 -33 148.5t-110 50.5q-70 0 -109 -54.5t-39 -146.5q0 -102 33 -152.5t110 -50.5q70 0 109 55.5t39 149.5z" />
<glyph unicode="&#x2039;" horiz-adv-x="641" d="M367 248l-246 352l248 361l110 -66l-205 -293l205 -287z" />
<glyph unicode="&#x203a;" horiz-adv-x="641" d="M272 248l-110 65l205 291l-203 289l115 68l243 -355z" />
<glyph unicode="&#x2044;" horiz-adv-x="430" d="M-358 -281l-105 72l1301 1851l102 -71z" />
<glyph unicode="&#x2074;" horiz-adv-x="778" d="M588 944v-192h-137v192h-398l-10 96l344 555h201v-534h139v-117h-139zM451 1491l-269 -434q27 2 64 3t75.5 1h72.5h57v430z" />
<glyph unicode="&#x20ac;" horiz-adv-x="1212" d="M1155 94q-88 -53 -181 -82.5t-222 -29.5q-231 0 -367.5 127t-167.5 370h-190v107h182v73q0 33 1 64t3 59h-186v107h196q23 135 75 232.5t127 159.5t169 91t201 29q96 0 188 -24.5t154 -59.5l-52 -121q-53 33 -133 56.5t-176 23.5q-70 0 -133 -21.5t-114.5 -68.5 t-88.5 -121t-51 -176h479v-107h-489q-2 -23 -3 -47t-1 -51v-51q0 -25 2 -47h491v-107h-481q23 -178 123 -273t274 -95q84 0 167 26.5t155 73.5l49 -117v0z" />
<glyph unicode="&#x2122;" horiz-adv-x="1437" d="M383 1286v-479h-123v479h-158v96h435v-96h-154zM1198 807l-47 323l-16 115l-25 -98l-104 -340h-127l-101 344l-24 94l-6 -76l-54 -362h-112l88 575h157l101 -340l22 -98l19 88l108 350h156l88 -575h-123z" />
<glyph unicode="&#x2202;" horiz-adv-x="1306" d="M924 487q0 117 -74 196t-215 79q-70 0 -128 -26.5t-100 -73t-66 -108.5t-24 -134q0 -154 77 -229.5t200 -75.5q70 0 130 28.5t105 78.5t70 118.5t25 146.5zM1149 844q0 -86 -9.5 -175t-32 -176t-56 -166t-82.5 -145q-66 -88 -168.5 -143t-227.5 -55q-203 0 -306 113.5 t-103 308.5q0 104 34.5 192t99 153.5t153 102.5t196.5 37q129 0 216 -59.5t124 -157.5q2 53 2 98v88q-4 131 -41 229.5t-99.5 163t-145 96t-181.5 29.5l15 127q139 -2 252.5 -48t193.5 -130t123 -205.5t43 -277.5z" />
<glyph unicode="&#x220f;" horiz-adv-x="1605" d="M1286 1362v-1872h-149v1872h-668v-1872h-150v1872h-223v133h1413v-133h-223z" />
<glyph unicode="&#x2211;" horiz-adv-x="1249" d="M74 -510v119l647 901l-608 866v119h987v-133h-793l596 -846l-643 -887h868v-139h-1054z" />
<glyph unicode="&#x2212;" d="M88 543v133h950v-133h-950z" />
<glyph unicode="&#x221a;" horiz-adv-x="1239" d="M684 0h-176l-315 899h-191v119h313l207 -617q20 -61 40 -122.5t36 -122.5h4q16 59 29.5 115.5t30.5 111.5l337 1169h166z" />
<glyph unicode="&#x221e;" horiz-adv-x="1988" d="M874 608q-109 80 -205 139.5t-186 59.5q-98 0 -148 -57.5t-50 -135.5q0 -86 52 -142t155 -56q86 0 181 57t201 135zM1706 610q0 86 -53.5 141.5t-155.5 55.5q-84 0 -180 -57.5t-201 -135.5q109 -80 204 -139t187 -59q96 0 147.5 58t51.5 136zM1862 621q0 -68 -25 -129.5 t-71 -107.5t-113.5 -73.5t-153.5 -27.5q-129 0 -255 69.5t-255 167.5q-59 -45 -121.5 -87t-127 -75.5t-130 -54t-131.5 -20.5q-90 0 -155.5 25.5t-109.5 69.5t-65.5 102.5t-21.5 123.5q0 70 25.5 131.5t71.5 107.5t112.5 72.5t150.5 26.5q66 0 130.5 -19.5t129 -52 t128 -75.5t126.5 -93q59 45 122 88.5t126.5 77t129 54t130.5 20.5q88 0 154 -25.5t110 -69.5t66.5 -102t22.5 -124z" />
<glyph unicode="&#x222b;" horiz-adv-x="688" d="M649 1860q-25 6 -52.5 11t-53.5 5q-45 0 -74 -14.5t-47.5 -53.5t-27.5 -109.5t-9 -185.5q0 -76 2 -192.5t4 -226t7 -331.5t7.5 -368.5t4.5 -284t2 -241.5q0 -145 -18.5 -244.5t-56.5 -162t-95.5 -90t-135.5 -27.5q-27 0 -54 3t-50 9v137q23 -6 50.5 -11t51.5 -5 q45 0 74 14t47.5 51t27.5 105.5t9 179.5q0 72 -2 186.5t-3 215t-6 335t-7 384t-4 288.5t-2 244q0 145 19 246.5t57 163t95.5 89t135.5 27.5q55 0 104 -12v-135z" />
<glyph unicode="&#x2248;" d="M1026 412q-45 -35 -110.5 -68t-145.5 -33q-76 0 -127 19.5t-95 42t-89 42t-109 19.5q-66 0 -116 -29.5t-82 -56.5l-52 109q43 39 106.5 74.5t147.5 35.5q72 0 123 -19.5t97.5 -44t94.5 -44t109 -19.5q53 0 101.5 20.5t95.5 61.5l51 -110v0zM1026 762q-45 -45 -108.5 -79 t-147.5 -34q-74 0 -125 19.5t-94 42t-89 42t-112 19.5t-116 -28.5t-82 -57.5l-52 111q45 41 110.5 74.5t147.5 33.5q70 0 123.5 -19.5t99.5 -44t92 -44t105 -19.5q53 0 100.5 25.5t94.5 66.5l53 -108v0z" />
<glyph unicode="&#x2260;" d="M537 379l-121 -299h-135l120 299h-284v127h336l79 205h-415v129h467l123 305h137l-123 -305h289v-129h-340l-82 -205h422v-127h-473z" />
<glyph unicode="&#x2264;" d="M137 0v129h852v-129h-852zM881 246l-762 499l760 502l86 -106l-621 -393l621 -388z" />
<glyph unicode="&#x2265;" d="M137 0v129h852v-129h-852zM248 246l-86 108l620 391l-620 388l84 114l762 -499z" />
<glyph unicode="&#x25ca;" horiz-adv-x="1261" d="M621 1231l-373 -529l395 -548l375 522zM686 -16h-96l-512 714l502 701h92l512 -713z" />
<glyph unicode="&#x25fc;" horiz-adv-x="1013" d="M0 1014h1014v-1014h-1014v1014z" />
<glyph unicode="&#xeeee;" horiz-adv-x="358" d="M358 2007v-2662h-358v2662h358z" />
<glyph unicode="&#xf000;" d="M922 205v717h-717v-717h717zM512 717v102h307v-512h-102v205h-205v102h205v103h-205zM102 102v922h922v-922h-922zM307 307v512h103v-409h204v-103h-307z" />
<glyph unicode="&#xf001;" horiz-adv-x="1204" d="M864 0v897h-475v-897h-153v897h-222v121h222v47q0 211 112.5 326.5t337.5 115.5q78 0 153.5 -10t139.5 -29l-33 -129q-61 18 -132 29.5t-140 11.5q-143 0 -214 -75.5t-71 -217.5v-69h629v-1018h-154z" />
<glyph unicode="&#xf002;" horiz-adv-x="1204" d="M864 0v1366q-25 4 -83 10t-122 6q-139 0 -204.5 -65.5t-65.5 -216.5v-82h279v-121h-279v-897h-153v897h-222v121h222v74q0 209 109.5 311t336.5 102q98 0 194.5 -10t141.5 -16v-1479h-154z" />
<glyph unicode="&#xf6c9;" horiz-adv-x="770" d="M217 1493l-33 90l353 152l49 -125z" />
<glyph unicode="&#xf6ca;" horiz-adv-x="1007" d="M502 1489l-318 168l47 92l273 -127l274 127l45 -90z" />
<glyph unicode="&#xf6cb;" horiz-adv-x="999" d="M377 1595q-2 -43 -26.5 -68.5t-69.5 -27.5q-43 2 -69 28.5t-28 67.5q2 41 29 68t68 29q43 -2 68.5 -29t27.5 -68zM813 1595q-2 -45 -30.5 -70.5t-67.5 -25.5q-45 2 -68.5 28.5t-25.5 67.5q2 41 28.5 69t65.5 28q41 -2 68.5 -27t29.5 -70z" />
<glyph unicode="&#xf6ce;" horiz-adv-x="770" d="M553 1493l-369 117l49 125l353 -152z" />
<glyph unicode="&#xf6cf;" horiz-adv-x="1069" d="M262 1491l-78 74l222 250l98 -93zM608 1491l-76 74l259 245l94 -94z" />
<glyph unicode="&#xf6d0;" horiz-adv-x="919" d="M184 1538v111h551v-111h-551z" />
<glyph unicode="&#xf8ff;" horiz-adv-x="2129" d="M293 731v-74l-242 -14q-4 53 0 102zM1087 727q4 0 5 10q0 10 -5 11q6 -11 0 -21zM1081 731q10 0 5 4t-1 4v2q-10 0 -4 -4t0 -4v-2v0zM1075 735q-4 -4 -4 -2q0 4 4 2zM1075 731h2v6q0 10 -8 2q4 0 6 -2q-4 0 -6 -4t6 0v-2zM1069 727q-6 10 0 21q-4 0 -4 -11q0 -10 4 -10z M1061 733q-4 -2 -4 2q0 6 4 4v2q-4 2 -5 -5t5 -5v2zM1051 741v-6q0 -4 -1 -3t-1 3v6h-2v-6q0 -4 2 -4q4 0 4 4v6h-2zM1044 733h-4v12h-2v-14h6v2zM1298 0l-499 -127l53 -131h430l29 72l-15 30l-155 -41l-23 62l215 53zM1296 168l-499 -129l37 -86l499 125zM807 319v-116 l33 -82l485 123v75h-518zM1159 692q-29 4 -49 5t-43 1t-45.5 -1t-50.5 -5l28 -301h131l29 301v0zM938 391l-33 289q-27 -6 -43 -13.5t-30.5 -11.5t-21.5 7.5t-9 27t2 30.5t12 17q57 16 121.5 27.5t130.5 11.5t130.5 -11t123.5 -28q6 -2 9 -16t2 -30.5t-8 -28t-21 -7.5 q-14 8 -34 13.5t-44 11.5l-31 -289h129q53 49 95 127t42 176q0 82 -30.5 154t-84 126t-125 85t-153.5 31t-154.5 -31t-126 -85t-85 -126t-31.5 -154q0 -86 35.5 -165.5t105.5 -137.5h127zM1548 694q0 -109 -40 -196.5t-99 -143.5v-155l-33 -11l64 -151l-60 -14l60 -146 l-62 -16l23 -51l-60 -136h-100q-4 -37 -54 -62.5t-120 -25.5q-72 0 -122 26t-54 62h-100l-99 242l62 16l-64 152l70 16l-39 95v159q-59 59 -99 147.5t-40 192.5q0 100 37.5 188.5t103 154t154 103.5t190.5 38q98 0 186 -38t154 -103.5t103.5 -154t37.5 -188.5zM2079 745 q2 -27 2 -51v-51l-242 14q4 37 0 74l240 14v0zM1733 1434q20 -16 37.5 -34t33.5 -38l-176 -158q-25 29 -53 53zM1104 1434q-18 2 -37.5 1t-38.5 -1l-12 237q53 4 100 0l-12 -237v0zM326 1364q16 20 33.5 37.5t37.5 34.5l160 -181q-25 -20 -53 -51l-178 160v0z" />
<glyph unicode="&#xfb00;" horiz-adv-x="1331" d="M905 1315q-61 23 -127.5 36t-128.5 13q-131 0 -195.5 -68.5t-64.5 -205.5v-72h467v65q0 138 49 232zM1393 1358q-20 6 -65.5 14t-94.5 8q-117 0 -170 -69.5t-53 -218.5v-74h299v-121h-299v-897h-154v897h-467v-897h-153v897h-222v121h222v51q0 86 21.5 160t70.5 133 t133 93t203 34q76 0 161.5 -16.5t165.5 -40.5q98 74 252 73q82 0 164 -16z" />
<glyph unicode="&#xfb01;" horiz-adv-x="1204" d="M864 0v897h-475v-897h-153v897h-222v121h222v47q0 211 112.5 326.5t337.5 115.5q78 0 153.5 -10t139.5 -29l-33 -129q-61 18 -132 29.5t-140 11.5q-143 0 -214 -75.5t-71 -217.5v-69h629v-1018h-154z" />
<glyph unicode="&#xfb02;" horiz-adv-x="1204" d="M864 0v1366q-25 4 -83 10t-122 6q-139 0 -204.5 -65.5t-65.5 -216.5v-82h279v-121h-279v-897h-153v897h-222v121h222v74q0 209 109.5 311t336.5 102q98 0 194.5 -10t141.5 -16v-1479h-154z" />
<glyph unicode="&#xfb03;" horiz-adv-x="1822" d="M915 1313q-68 25 -135 38t-131 13q-131 0 -195.5 -68.5t-64.5 -205.5v-72h467v47q0 70 13 132.5t46 115.5zM1485 0v897h-475v-897h-154v897h-467v-897h-153v897h-222v121h222v51q0 86 21.5 160t70.5 133t133 93t203 34q80 0 172 -17.5t174 -48.5q57 41 128.5 62.5 t168.5 21.5q76 0 151.5 -10t138.5 -29l-30 -129q-61 18 -133 29.5t-142 11.5q-143 0 -212.5 -75.5t-69.5 -217.5v-69h628v-1018h-153z" />
<glyph unicode="&#xfb04;" horiz-adv-x="1822" d="M905 1315q-61 23 -127.5 36t-128.5 13q-131 0 -195.5 -68.5t-64.5 -205.5v-72h467v74q0 137 49 223zM1485 0v1366q-25 4 -83.5 10t-121.5 6q-141 0 -205.5 -65.5t-64.5 -216.5v-82h278v-121h-278v-897h-154v897h-467v-897h-153v897h-222v121h222v51q0 84 21.5 159 t70.5 133t133 92t203 34q80 0 168 -16.5t167 -43.5q53 39 128 58.5t176 19.5q98 0 194 -10t141 -16v-1479h-153z" />
<glyph unicode="&#xfb06;" horiz-adv-x="1607" d="M1538 6q-43 -10 -94 -16t-98 -6q-152 0 -208.5 71.5t-56.5 231.5v610h-219v121h219v24q0 160 -80.5 249t-212.5 89q-113 0 -166 -54t-53 -134q0 -61 34 -113.5t99 -74.5l-16 -119q-41 14 -94 22t-109 8q-109 0 -163 -40.5t-54 -112.5q0 -61 37 -95t93.5 -56.5t121 -42 t120.5 -51.5t93 -86t37 -144q0 -63 -26.5 -118.5t-79 -97.5t-128 -65.5t-176.5 -23.5q-66 0 -130 8t-113 20l14 142q49 -18 116.5 -30.5t129.5 -12.5q115 0 175 44t60 121q0 61 -36.5 95t-92 57t-121 42t-121 52t-92 86t-36.5 144q0 63 28.5 116.5t79.5 91t124 56t163 10.5 q-35 25 -59.5 68t-24.5 106q0 61 24.5 116.5t71.5 96.5t119 65.5t164 24.5q90 0 169 -26.5t137 -82t92 -140.5t34 -201v-33h299v-121h-299v-567q0 -61 7 -102.5t24.5 -66t46 -34.5t73.5 -10q78 0 140 16z" />
<glyph horiz-adv-x="1820" d="M1567 543q0 176 -61.5 271t-184.5 95q-74 0 -131 -37.5t-95 -100t-57.5 -136.5t-19.5 -143v-355q88 -29 199 -28q80 0 144 25.5t110.5 77.5t71 135t24.5 196zM1729 555q0 -135 -37 -240.5t-105.5 -178.5t-166 -110.5t-218.5 -37.5q-113 0 -206 14t-132 25v1339 q-25 4 -83 10t-122 6q-139 0 -204.5 -65.5t-65.5 -216.5v-82h279v-121h-279v-897h-153v897h-222v121h222v74q0 209 109.5 311t336.5 102q98 0 194.5 -10t141.5 -16v-500q0 -45 -5 -97.5t-14 -88.5l5 -2q43 115 135 180t213 65q180 0 278.5 -122.5t98.5 -358.5z" />
<glyph horiz-adv-x="1859" d="M1522 0v657q0 127 -43 189.5t-150 62.5q-68 0 -125 -31.5t-99 -89t-64.5 -134t-22.5 -167.5v-487h-154v1366q-25 4 -83 10t-122 6q-139 0 -204.5 -65.5t-65.5 -216.5v-82h279v-121h-279v-897h-153v897h-222v121h222v74q0 209 109.5 311t336.5 102q98 0 194.5 -10 t141.5 -16v-484q0 -57 -4 -112.5t-13 -89.5l5 -2q45 115 139 180t223 65q84 0 143.5 -24.5t95 -68.5t51 -103.5t15.5 -130.5v-709h-151z" />
<glyph horiz-adv-x="1202" d="M1018 -129q0 -104 -17.5 -178t-55.5 -122t-102.5 -71.5t-158.5 -23.5q-35 0 -72 5t-67 13l16 135q29 -12 62.5 -18t68.5 -6q53 0 86 12t51.5 41t26.5 77t8 126v1036h-475v-897h-153v897h-222v121h222v47q0 211 112.5 326.5t337.5 115.5q78 0 153.5 -10t139.5 -29 l-33 -129q-61 18 -132 29.5t-140 11.5q-143 0 -214 -75.5t-71 -217.5v-69h629v-1147z" />
<glyph horiz-adv-x="1665" d="M864 1366q-25 4 -83 10t-122 6q-139 0 -204.5 -65.5t-65.5 -216.5v-82h279v-121h-279v-897h-153v897h-222v121h222v74q0 209 109.5 311t336.5 102q98 0 194.5 -10t141.5 -16v-918l383 457h186l-405 -463l438 -555h-201l-401 535v-535h-154v1366z" />
<glyph horiz-adv-x="1966" d="M596 117q-2 -16 -17.5 -41t-31.5 -37q-8 -2 -17.5 -8t-19.5 0q-12 4 -5 15t11 22q0 4 3 20t12.5 36.5t22.5 42t32 34.5q18 2 22 2q6 0 13 4q4 -6 -0.5 -18.5t-9.5 -27t-10 -27.5t-5 -17zM877 158q8 -29 -5.5 -59.5t-35.5 -53.5q-6 -8 -13.5 -9t-15.5 -5q-25 4 -24 26.5 t1 40.5q8 16 12.5 34t14.5 32q16 8 26.5 22.5t26.5 14.5l4 -6q-8 -14 -0.5 -20.5t9.5 -16.5zM545 371q-25 4 -52.5 3t-54.5 -3q-16 -2 -31.5 -5.5t-27.5 -11.5q-10 -33 -20.5 -66.5t-18.5 -66.5q-6 -53 -19.5 -111.5t-21.5 -113.5q8 0 16.5 3t12.5 -1q14 4 24 -1t23 1 q10 33 15 64.5t16 64.5q6 10 16 15t20.5 9.5t17.5 0t15 6.5l8 57q-6 10 -18 9t-25 -1q-8 -8 -14 -8q-16 4 -11 19.5t1 25.5q-2 6 3 11t9 10q23 6 43.5 9t40.5 7l12 8q2 18 9.5 34t11.5 32zM659 70q-2 23 4.5 48t12.5 50t10 49.5t-4 42.5q-10 8 -24.5 13.5t-18.5 -5.5l-4 -12 q-16 -4 -38 4t-40 -4q-16 -8 -21.5 -16.5t-9.5 -24.5q2 -6 -3 -9t-12 -6t-12 -9.5t-3 -18.5q-4 -8 -1 -13t-6 -14q-4 -10 -11 -26.5t-13 -20.5q-20 -12 -17 -40.5t11 -45.5q-4 -14 5 -22t19 -13q4 4 8.5 6.5t8.5 -1.5q16 -4 38.5 15t39.5 30q12 2 12 -2t-3 -10.5t-5 -14.5 t2 -12q10 -4 13 -7.5t13 -3.5q8 4 16.5 5.5t16.5 7.5l16 80v0zM915 61q25 35 27 72t0 78q4 6 -2 12t-14 10.5t-16.5 9.5t-10.5 7q-4 4 -10 4q-4 0 -6 -6q-23 2 -41 -8q-12 -6 -18.5 -16.5t-16.5 -14.5q-4 -4 -9 -1t-7 7q14 37 17 75t5 77l-2 14h-16q-18 -6 -19.5 -22.5 t-7.5 -28.5q-12 -35 -17.5 -70t-17.5 -70q-4 -35 -13 -67.5t-11 -63.5q-4 -18 -10.5 -35.5t-8.5 -37.5q12 -8 30.5 -2t33.5 12q10 4 16 2t11 -8t8.5 -12.5t9.5 -10.5q16 0 26 2q25 12 55.5 39.5t34.5 52.5zM1161 252q-16 -2 -34.5 -5t-32.5 -22q-10 -8 -15.5 -23.5 t-21.5 -11.5q-4 16 -1 29.5t7 30.5q-8 4 -15.5 0t-15.5 0q-18 -8 -28 -27q-10 -59 -20.5 -113.5t-14.5 -113.5l6 -8q10 -8 23.5 -3t23.5 1q-4 23 5 42t5 42q10 23 20.5 46t30.5 44q12 10 26.5 13t31.5 13q4 16 12 33t8 33zM1219 31q8 41 14 80t12 75q10 31 10 54 q-12 10 -26.5 4t-30.5 -4q-18 -23 -20 -49.5t-9 -53.5q-8 -10 -11 -24.5t-7 -28.5q4 -20 -5 -45t1 -45q29 0 63 10q9 11 9 27zM1280 367q-2 10 -6 18t-14 12q-4 4 -10.5 5t-10.5 -5q-10 -12 -17.5 -30.5t-0.5 -30.5q2 -10 14 -11t22 3q23 12 23 39zM1475 -20 q-4 16 -9.5 33.5t-15.5 31.5q-10 23 -20.5 42t-8.5 46q-2 10 -6 17.5t0 17.5q18 16 41 26.5t39 26.5l-14 35q-18 -2 -33.5 -9t-32.5 -11q-10 -4 -21.5 -12.5t-19.5 1.5q10 41 18.5 81t14.5 79l-4 6q-16 0 -27.5 5t-25.5 10q-6 -23 -13.5 -48.5t-11.5 -50.5q-8 -16 -8 -41 q0 -23 -10 -39q-10 -63 -23.5 -106t-19.5 -105l-4 -14h49q6 2 12 -2t12 2q4 14 5 27.5t5.5 30t0 34t18.5 23.5q12 -4 10 -13.5t2 -17.5q-2 -14 5 -24.5t7 -22.5q18 -12 25.5 -32.5t24.5 -35.5q6 2 10 -3t14 -1q15 1 15 13zM877 1104q-4 23 -12.5 44t-33.5 26 q-4 -10 -13 -7.5t-17 0.5q-27 12 -56 -12q-25 -31 -13.5 -59.5t26.5 -55.5q2 -8 9 -6t15 0q12 -4 25.5 3t26.5 12q14 12 30.5 22t12.5 33zM1571 -127q-45 4 -100.5 -5t-98.5 -3q-115 4 -223.5 -8.5t-220.5 0.5q-51 -8 -99.5 -3t-97.5 9q-59 4 -121.5 3t-126.5 -1 q-43 0 -102 -3t-102 -14q-8 -2 -19 -2q-8 0 -12 11q0 33 -2 66.5t8 66.5q4 41 2 82t4 82q-8 47 -1 91t-1 91q0 66 5 132.5t9 135.5q4 74 1 146.5t1 146.5q8 16 23.5 13t30.5 1q16 -10 37.5 -5t37.5 3q6 6 15.5 11.5t11.5 -9.5q4 -4 1 -12t5 -12q-4 -29 -3 -78t4 -106.5 t7.5 -118t6.5 -109.5q66 20 120 56t117 59q10 4 19.5 12t23.5 12q4 2 8 6.5t13 0.5q10 -4 8 -14.5t-2 -20.5q-20 -59 -10 -125q4 -10 13 -6t15 4q16 14 34.5 23.5t35.5 21.5q20 12 40.5 23.5t43.5 19.5q25 16 48 32.5t50 26.5l41 33q2 8 12 14q6 0 11.5 -4t11.5 -8 q0 -29 6 -58.5t6 -58.5q2 -6 6 -5t6 -3q8 -10 4 -20.5t-8 -20.5l4 -4q35 8 65 26.5t59.5 39t59 39t64.5 26.5q10 10 22.5 13t22.5 14q10 2 18.5 9t17.5 13t19.5 9.5t22.5 -7.5q4 0 8 -2t6 -6q-2 -8 1.5 -13t7.5 -11q-4 -16 0 -29.5t-4 -26.5q2 -27 0 -51.5t10 -46.5 q-4 -14 5 -25.5t-1 -21.5q2 -16 0 -29.5t8 -25.5q2 -10 3 -19.5t-5 -17.5q4 -23 5 -47.5t9 -47.5q-4 -8 -2 -16t2 -16q0 -78 11.5 -151t13.5 -150q0 -4 3 -9.5t-1 -9.5zM961 1360q-27 -27 -62 -17q-8 12 -15 23.5t-7 26.5q-20 41 -64.5 51t-87.5 22l-63 4q-4 -4 -12.5 -2 t-14.5 -2q-37 -10 -63.5 -20t-53.5 -23q-14 -16 -35.5 -27.5t-27.5 -33.5q-16 -31 -24.5 -70t-14.5 -73q10 -8 22.5 -5t22.5 0q45 4 86 5h90q10 -4 0 -15q-18 -12 -31.5 -1t-30.5 5q-20 2 -42.5 -1t-43.5 -1q-18 -4 -38 -4t-37 -10l-6 -8q-8 -39 -10.5 -63.5t-2.5 -65.5 q2 -14 -3 -28.5t5 -29.5q27 -2 42.5 -1t28.5 2t28.5 3.5t42.5 2.5q8 4 14 2t12 -5q2 -2 1 -4t1 -4l-10 -4q-23 4 -41 3t-37.5 -3t-42 -4t-53.5 0q-23 -2 -47.5 -4t-48.5 0q-31 -2 -66 -2t-63 8l-2 6q6 6 18 11q16 -8 36.5 -9.5t41.5 -5.5q16 2 29.5 1t25.5 7q4 53 18.5 94.5 t24.5 96.5l-4 8q-31 2 -59.5 0t-55.5 10q0 10 9 11q27 -8 55 -9q31 0 59 2l4 7q10 35 20.5 70.5t27.5 64.5l2 6q51 53 115.5 86t142.5 41q35 4 71.5 -4t65.5 -23q10 -4 20 -4q12 0 23 -4q35 -8 66.5 -24.5t52.5 -47.5q2 -4 0 -9t-4 -9zM926 1145q2 -37 -21 -64 q-25 -14 -45 -31.5t-49 -21.5q-6 2 -8 -1t-5 -6t-6.5 -5t-9.5 2q-10 8 -24.5 4t-26.5 -2q-12 0 -21.5 1t-19.5 5q-14 14 -27.5 31.5t1.5 42.5q16 41 55 61q23 10 47.5 21.5t50.5 5.5q33 -2 65 -8t44 -35zM1323 1028q-25 0 -52.5 -1t-53.5 -9q-6 4 -12.5 5t-10.5 11 q8 29 13 57.5t1 57.5q-4 6 -13 1t-15 -9q-31 -16 -60.5 -40t-36.5 -59q-8 -8 -19 -11t-20 1q-10 14 -2.5 30.5t2.5 33.5l7 63q-6 6 -16.5 3t-20.5 1q-4 4 -13.5 2t-7.5 9q27 -2 52.5 2t54.5 0q6 -6 5 -14.5t-3 -16.5t0 -14.5t10 -10.5q29 12 55.5 29.5t55.5 28.5q6 -4 14 -3 t14 1q8 0 13.5 -3.5t7.5 -13.5q2 -23 -1 -44t-5 -44q2 -6 1 -13t3 -11q18 -4 26 0q8 0 16.5 -2.5t18.5 -2.5q6 -4 0 -10zM1817 1169q-4 -8 -7 -8q-23 4 -44 1t-44 -5q-70 -4 -108.5 -6t-75.5 -8q-16 -14 -17 -32.5t-12 -35.5q-2 -10 1 -16t3 -15q4 -6 12.5 -9t14.5 -5 q16 2 29.5 8t21.5 19q0 14 -10 24q-10 8 -21.5 6t-19.5 9q8 10 21.5 8t25.5 -2q16 -6 27 -33q-8 -31 -43 -55q-10 -4 -21.5 -5t-23.5 -5q-23 6 -48.5 16t-37.5 33q-6 25 3 46t13 44q-4 10 -12 8t-17 0l-69 -2q0 4 -2 4t-2 4q8 4 16 4t14 2q18 -4 39 -2t39 2q10 6 11.5 15.5 t3.5 19.5q8 14 10 32.5t16 29.5q10 6 15.5 -2.5t9.5 -12.5q10 -16 4 -35.5t0 -38.5q4 -12 18.5 -8t24.5 0q47 4 100.5 3t132.5 10q7 -5 9 -7z" />
<glyph horiz-adv-x="2695" d="M1696 1178q-10 8 -14.5 -1.5t-10.5 -5.5q-47 -23 -62.5 -69.5t-13.5 -93.5q14 -4 24.5 8t25.5 8q6 14 17 29.5t20.5 31t12.5 33t-12 33.5q12 0 13 10v17zM944 471q-14 4 -26.5 -6t-20.5 -23q-23 -29 -40 -61.5t-3 -67.5q10 -4 14 2.5t9 12.5q23 23 40 47t31 55zM1227 426 q4 10 8 27.5t-12 21.5l-11 -59q10 2 11 4q0 2 4 6zM762 -12q-6 23 -30.5 26.5t-43.5 -4.5q-23 -18 -44 -38.5t-38 -43.5q-10 -31 -24.5 -61.5t-26.5 -61t-19.5 -62.5t-3.5 -67q6 -2 7.5 1.5t5.5 7.5q27 37 58.5 71.5t62 71.5t55.5 76t41 84zM1171 -188q-4 -23 -7 -47.5 t5 -47.5q6 -6 16.5 -5t19.5 7.5t13.5 17.5t-1.5 27q2 8 5 22.5t2 28t-6.5 23.5t-17.5 12zM1446 -315q12 27 4 57.5t-25 52.5q-10 -12 -12 -26.5t-4 -28.5q4 -16 9 -33.5t28 -21.5zM707 901q-4 -4 -8.5 -8t-20.5 -8t-49 -9.5t-94 -9.5q-70 -6 -132.5 -17t-128.5 -34 q-10 -23 -27.5 -16.5t-29.5 12.5q-2 8 2 14t10.5 11.5t12.5 10.5t8 13q12 25 21.5 49.5t17.5 48.5q-4 12 4 26.5t14 27.5q45 104 86 209.5t66 216.5q-8 29 6 43q12 4 16 -4.5t11 -14.5q-14 -80 -41 -153.5t-58 -146t-60.5 -146.5t-49.5 -152l4 -4q78 12 149.5 26.5 t153.5 16.5q25 -4 55 -4q31 0 55 10zM1026 963q-10 -25 -18.5 -50.5t-26.5 -48.5q-14 -6 -25.5 1t-17.5 20q-33 76 -20 153q-4 2 -2 16.5t3 33t1 36.5t-7 27q-12 -31 -13 -63.5t-2 -64.5t-8 -61.5t-32 -56.5q-4 -4 -14 -7t-24.5 3t-27 23.5t-18.5 58.5q6 39 8 75t9 72 q4 14 -4.5 30t8.5 28q14 8 26 -8q2 -31 -2 -65t-6 -65.5t-1 -59t13 -48.5q14 -10 21.5 -4t10.5 18.5t5 25.5t6 17q8 41 6 86t11 86q6 6 10 15.5t8 16.5t11.5 10.5t19.5 -5.5q14 -41 15 -78.5t-1 -76.5t-1 -78t14 -78q2 -6 9 -8t13 6l4 11q4 12 9 24t12.5 22.5t17.5 10.5z M1341 1020q-14 -35 -44.5 -60.5t-71.5 -25.5t-77 15.5t-54 49.5q-16 23 -15.5 48.5t4.5 54.5q4 18 15.5 30.5t13.5 30.5q59 49 131 25q8 -6 16.5 -9t6.5 -16q-6 -8 -14.5 0t-18.5 8q-55 14 -103 -32q-16 -25 -24 -54.5t4 -58.5q45 -61 111 -70q18 8 39 9q23 0 38 20 q12 8 19.5 25.5t23.5 9.5zM1716 1384q-6 -10 -19.5 -20t-29.5 -8q-4 6 -9 14t-16 -2q-59 -47 -113 -99t-77 -122q-6 -41 -10 -86t2 -88t23.5 -81t52.5 -65q20 -16 44.5 -13t49.5 1q12 8 21.5 17.5t21.5 17.5q4 -18 -13.5 -26.5t-29.5 -20.5q-31 -12 -67 -5t-60 29 q-47 43 -55 95q-10 4 -11 10q0 6 2 12t3 12.5t-7 10.5q4 6 2 13t-5 15.5t-4 15.5t5 17q-2 61 17.5 113.5t52.5 98.5t76 86t88 75q8 0 18 3t21 3q10 0 17 -4.5t9 -18.5zM1995 983q-6 -16 -18.5 -31.5t-30.5 -19.5q-16 4 -23.5 13t-17.5 22l4 28q10 -4 9 -16t13 -16 q10 -4 19.5 6t13.5 16q8 47 1 92t-32 86l-12 -6q-25 -23 -46.5 -42t-35.5 -50l-16 -8q-29 -29 -49.5 -60.5t-44.5 -54.5q-12 -2 -17.5 3t-8.5 13.5t-4 18.5t-5 16q8 20 -6 35q-12 2 -13.5 -7t-7.5 -13q-16 -16 -29.5 -23.5t-35.5 -9.5q-23 6 -29 18.5t-3 27.5t8 33.5t5 35.5 q8 31 26.5 54t41.5 48q20 4 44.5 12t41.5 -16l8 -12q-12 -35 -15.5 -73t-7.5 -75q2 -6 5.5 -13t11.5 -7q23 0 28 18t19 31q45 39 84 79t76 81q12 -4 17 -15.5t6 -24t2 -25.5t7 -22q10 -4 7 -16q16 -31 15 -63.5t-5 -67.5zM2179 1190q-4 59 -32.5 118.5t-90.5 88.5 q12 18 25.5 16t26 -12t22.5 -25.5t18 -23.5q33 -39 47.5 -85t15.5 -95.5t-10.5 -98.5t-29.5 -94q-29 -70 -84 -130.5t-129 -90.5q29 20 54.5 43.5t43.5 54.5q33 33 61.5 72t36.5 92q25 41 27 84t-2 86zM1497 428q-37 -6 -71.5 -16.5t-69.5 -20.5t-70 -17t-72 -3 q-6 -6 -10 -22.5t-1 -33t11.5 -26.5t26.5 -4q6 8 9 23.5t16 19.5q10 -18 3 -36t-20 -32q-6 -4 -21.5 -5t-29.5 8t-23.5 31.5t-3.5 65.5q-4 6 -9 12.5t-1 16.5q23 16 25 42t6 52q-4 2 -4 4t-4 5q-35 -23 -53.5 -60t-45.5 -65q0 -14 -8 -25.5t-17 -23t-16.5 -23.5t-3.5 -29 q-6 -6 -7 -16t-2 -19.5t-5 -16.5t-18 -9q-18 4 -24.5 15t-6.5 24q0 14 2 28.5t0 26.5q-6 39 2 71.5t2 67.5q-18 -10 -23.5 -28.5t-19.5 -34.5q-10 -12 -19.5 -28.5t-19.5 -31t-25.5 -21.5t-35.5 -3q-23 35 -8.5 73.5t34.5 73.5q8 10 18.5 23.5t22 24t25.5 15.5t31 -1 q10 -6 20 0q18 43 27.5 90t13.5 94l20 16q12 -4 14.5 -10t-0.5 -14t-6 -16.5t-1 -16.5q-8 -57 -19.5 -113.5t-15.5 -111.5q-2 -31 -8.5 -59.5t4.5 -59.5q33 43 61.5 94t73.5 94q12 16 28.5 33t36.5 29q16 -12 30.5 -29.5t31.5 -27.5q0 -18 -2 -41t2 -41q55 12 105.5 20 t103.5 25q16 -11 14 -27zM836 -18q-2 -78 3 -156t1 -152.5t-28 -142.5t-81 -125q-66 -41 -144.5 -50t-152.5 11q-8 4 -16 11.5t-8 17.5q4 20 12 40.5t33 28.5q-6 -16 -13.5 -32.5t-11.5 -34.5q27 -16 59.5 -22.5t68.5 -4.5t70 12.5t60 24.5q29 10 46.5 28.5t27.5 41t18 46 t19 46.5q12 72 14 154.5t-2 144.5q8 23 2 49.5t-2 48.5q-4 10 -12 7t-13 -5q-16 -16 -22 -35.5t-23 -31.5q2 -16 -4 -24.5t-15 -15.5t-17.5 -15.5t-8.5 -22.5q-41 -47 -76.5 -95t-70.5 -98q-8 -12 -14.5 -24.5t-22.5 -9.5q-10 14 -11 29.5t0 30.5t3 31.5t0 32.5q10 35 18 72 t35 72q18 49 52 97t83 79q29 8 50.5 -5t43.5 -28q16 20 25 49q25 -10 25 -41q-10 -10 -3 -17t3 -17zM1108 -111q-8 -6 -16.5 -3t-16.5 7.5t-17 7.5t-18 -3q-14 -10 -20 -22.5t-9 -26t-7.5 -26.5t-12.5 -24q-4 -29 -10 -54.5t-6 -51.5q-6 -4 -12.5 -8t-16.5 0q-12 16 -6 36.5 t4 36.5q14 18 11 44t8 46q-6 10 -5.5 25.5t-3.5 26.5q-10 4 -15 -4.5t-15 2.5q4 20 28 36q16 0 24.5 -12t14.5 -24q8 2 15.5 11t14.5 16t16.5 9.5t19.5 -8.5zM1939 -70q-10 -12 -23 -16t-27.5 -6l-29 -4t-24.5 -10q-35 -4 -65.5 -13.5t-45.5 -44.5q-8 -20 -19 -39.5 t-21.5 -40t-16.5 -42t0 -46.5q4 -18 22.5 -17t30.5 5q8 0 13.5 9t15.5 3t2 -12t-12 -14q-16 -10 -37 -15.5t-41 4.5q-16 16 -24.5 34t-2.5 40q4 16 17.5 49t54.5 103q-16 8 -32.5 6t-32 -5t-32 -5.5t-32.5 4.5q10 12 25.5 18t29.5 10q27 6 56.5 4t46.5 25q14 23 10 46.5 t0 47.5q-10 4 -10 12v13q-12 23 -30.5 35t-40.5 17t-44.5 6t-42.5 1q-47 -4 -87 -34.5t-56 -71.5q-14 -33 -11.5 -66t17.5 -67q-4 -25 5 -47.5t20.5 -44t16.5 -46t-7 -51.5q-10 -10 -25.5 -8t-28.5 6q-29 14 -32 45t-13 57q16 12 14.5 34t10.5 38q4 10 2 26.5t-17 22.5 q-35 -4 -77 -4q-41 0 -70 -24q2 -23 5 -45.5t2 -45t-9 -43t-29 -34.5q-23 -6 -49 8q-23 18 -19.5 44t3.5 50q16 31 31.5 64.5t50.5 46.5q16 -10 33.5 -6t33.5 8l101 2q10 10 9 25.5t3 27.5q18 59 64.5 105.5t111.5 50.5q35 4 67.5 2t63.5 -19q2 -10 8 -16t14.5 -10 t15.5 -10.5t9 -16.5q18 -29 13 -67.5t-11 -71.5q47 0 92 8t86 16z" />
<glyph horiz-adv-x="1449" d="M1192 682q0 268 -120 426t-347 158q-98 0 -183 -37t-148.5 -108.5t-99.5 -178t-36 -240.5q0 -131 29.5 -238.5t89 -185t146.5 -119.5t202 -42q98 0 183 36.5t148.5 108.5t99.5 178.5t36 241.5zM1446 -365q-80 -12 -150.5 -10t-129 12.5t-136.5 30t-124 29.5t-105.5 13 t-124.5 -5v141q106 12 190 2t197 -37.5t195.5 -38t187.5 4.5v-142zM1356 709q0 -172 -50.5 -308.5t-140.5 -229.5t-207.5 -141t-250.5 -48q-145 0 -260 48t-194 139t-119 219t-40 286q0 172 50.5 308t140.5 229.5t207.5 141.5t250.5 48q145 0 260 -48t194 -139.5t119 -219 t40 -285.5z" />
<glyph horiz-adv-x="1007" d="M776 1489l-272 127l-275 -127l-45 92l322 168l317 -166z" />
<glyph horiz-adv-x="1075" d="M891 1655q-82 -143 -219 -144q-51 0 -88 17.5t-67 38t-57.5 38t-62.5 17.5q-74 0 -131 -94l-82 59q39 70 94.5 107t124.5 37q51 0 88 -17.5t67 -38t57.5 -38t62.5 -17.5q72 0 131 94l82 -59v0z" />
<glyph horiz-adv-x="878" d="M694 1739q0 -102 -68.5 -170t-189.5 -68q-127 0 -189.5 69.5t-62.5 168.5h103q0 -53 43 -91t108 -38q70 0 111 38t41 91h104v0z" />
<glyph horiz-adv-x="575" d="M391 1602q0 -43 -30.5 -74t-71.5 -31q-43 0 -74 29.5t-31 75.5q0 43 31 73.5t74 30.5t72.5 -29.5t29.5 -74.5z" />
<glyph horiz-adv-x="821" d="M637 1675q0 -92 -62.5 -154.5t-173.5 -62.5q-100 0 -158.5 51.5t-58.5 155.5q0 92 62.5 153.5t173.5 61.5q100 0 158.5 -50.5t58.5 -154.5zM516 1669q0 119 -106 119q-41 0 -74 -28.5t-33 -88.5q0 -119 107 -119q41 0 73.5 29t32.5 88z" />
<glyph horiz-adv-x="696" d="M274 1257l-90 60l213 299l115 -74z" />
<glyph horiz-adv-x="962" d="M778 1595q0 -41 -28.5 -68.5t-69.5 -27.5q-39 0 -67.5 28.5t-28.5 67.5q0 41 27.5 70t68.5 29t69.5 -29t28.5 -70zM379 1595q0 -39 -27.5 -67.5t-68.5 -28.5t-70 27.5t-29 68.5t29 70t70 29t68.5 -29t27.5 -70z" />
<glyph horiz-adv-x="571" d="M209 1346q0 -41 -28.5 -70t-69.5 -29t-70 29t-29 70t29 68.5t70 27.5t69.5 -27.5t28.5 -68.5zM559 1346q0 -41 -28.5 -70t-69.5 -29q-43 0 -71 29t-28 70q0 39 29 67.5t70 28.5t69.5 -27.5t28.5 -68.5z" />
<glyph horiz-adv-x="753" d="M399 1161l-194 318l121 65l170 -330z" />
<glyph horiz-adv-x="735" d="M274 1171l-90 62l205 303l115 -76z" />
<glyph horiz-adv-x="892" d="M616 1178l-176 176l-178 -176l-67 71l247 264l246 -262z" />
<glyph horiz-adv-x="1021" d="M801 1378q-66 -141 -189 -141q-35 0 -64.5 15.5t-56 33t-48 32.5t-42.5 15q-33 0 -57.5 -25.5t-40.5 -60.5l-78 58q25 59 72 102t117 43q35 0 65.5 -15.5t56 -34t48 -33.5t43.5 -15q31 0 55.5 25.5t40.5 60.5z" />
<glyph horiz-adv-x="808" d="M170 1276v117h469v-117h-469z" />
<glyph horiz-adv-x="841" d="M651 1468q0 -127 -61.5 -193.5t-171.5 -66.5q-111 0 -169.5 67.5t-58.5 192.5h107q0 -57 31.5 -100t91.5 -43q57 0 89 39t32 104h110z" />
</font>
</defs>
</svg>
